Патриот [1-16 серии из 17] (2020) WEBRip от Files-x

Reply to topic
 
Author Message

bond74 ®

Gender: Male

Longevity: 1 year 4 months

Posts: 758

Post 10-Mar-2020 22:53

[Quote]

Патриот Год выпуска: 2020
Жанр: Комедия
Выпущено: Россия, Good Story media
Режиссер: Николай Бурлак
В ролях: Антон Жижин, Алёна Савастова, Владимир Сычёв, Валентина Лукащук, Вильма Кутавичюте, Настасья Самбурская, Алексей Базанов, Анастасия Талызина, Юлия Полынская, Евгения Капралова, Василий Березин, Владимир Афанасьев, Георгий Бергал
О фильме: Саня Кучин возвращается из армии в родной городок с большой мечтой сделать свой дом лучшим местом на земле. Саня — честный, деятельный парень с горячим сердцем, уверен, что у него получится исправить всех хулиганов и алкоголиков, а еще — добиться сердца любимой со школьных времен девушки. Порой Сане кажется, что перевоспитать земляков можно только кнутом, но вот незадача: он подал документы в академию ФСБ, а для того, чтобы пройти проверку, ему надо вести себя сдержанно.

Качество: WEBRip
Видео: XviD, ~ 1600 Кбит/с, 720x352, 25 кадр/с
Аудио: AC3, 2 ch, 192 Кбит/с
Продолжительность: 17 х ~ 00:25:00
Перевод: Не требуется
Субтитры: нет

Скриншоты

MediaInfo

General
Complete name : H:fiiles xПатриот .2020.WEB-DLRip Files-x1. Патриот .2020.WEB-DLRip Files-x.avi
Format : AVI
Format/Info : Audio Video Interleave
File size : 295 MiB
Duration : 22mn 54s
Overall bit rate : 1 803 Kbps
Writing application : VirtualDubMod 1.5.10.3 | www.virtualdub-fr.org || (build 2550/release)
Writing library : VirtualDubMod build 2550/release
Video
ID : 0
Format : MPEG-4 Visual
Format profile : Advanced Simple@L5
Format settings, BVOP : 1
Format settings, QPel : No
Format settings, GMC : No warppoints
Format settings, Matrix : Custom
Codec ID : XVID
Codec ID/Hint : XviD
Duration : 22mn 54s
Bit rate : 1 601 Kbps
Width : 720 pixels
Height : 352 pixels
Display aspect ratio : 2.045
Frame rate : 25.000 fps
Color space : YUV
Chroma subsampling : 4:2:0
Bit depth : 8 bits
Scan type : Progressive
Compression mode : Lossy
Bits/(Pixel*Frame) : 0.253
Stream size : 262 MiB (89%)
Writing library : XviD 73
Audio
ID : 1
Format : AC-3
Format/Info : Audio Coding 3
Mode extension : CM (complete main)
Codec ID : 2000
Duration : 22mn 54s
Bit rate mode : Constant
Bit rate : 192 Kbps
Channel(s) : 2 channels
Channel positions : Front: L R
Sampling rate : 48.0 KHz
Bit depth : 16 bits
Compression mode : Lossy
Stream size : 31.5 MiB (11%)
Alignment : Split accross interleaves
Interleave, duration : 40 ms (1.00 video frame)
Interleave, preload duration : 500 ms

Раздача ведётся путём добавления новых серий

Внимание! Раздача ведётся путём добавления новых серий; при каждом добавлении создаётся новый торрент.
Чтобы начать докачку новой серии, пользователям необходимо сделать следующее:
1. Остановить скачивание;
2. Удалить старый торрент у себя из клиента (старые серии удалять не надо);
3. Скачать новый торрент и запустить его у себя в клиенте вместо старого, при этом указать клиенту путь в старую папку куда и должно происходить скачивание новых серий. Ваш клиент при этом должен произвести хеширование (проверку) старой папки и будет докачивать только те серии, которых у вас ещё нет. Старые серии при этом не удаляются, а продолжают раздаваться! Eсли вы уже удалили старые серии, то предотвратить повторную закачку старых серий можно, отжав галочку в соответствующих местах при запуске нового торрента.
Релиз от:
[Profile] [PM]
Display posts:    
Reply to topic

Current time is: 02-Apr 19:38

All times are UTC + 3



You cannot post new topics in this forum
You cannot reply to topics in this forum
You cannot edit your posts in this forum
You cannot delete your posts in this forum
You cannot vote in polls in this forum
You cannot attach files in this forum
You cannot download files in this forum