Отречение [1-24 серии из 24] (2020) WEBRip 1080p от Files-x

Reply to topic
 
Author Message

bond74 ®

Gender: Male

Longevity: 1 year 4 months

Posts: 758

Post 11-Mar-2020 00:23

[Quote]

Отречение Год выпуска: 2020
Жанр: Детектив, мелодрама
Выпущено: Украина, ООО "АРТ ТЕРРИТОРИЯ" по заказу телеканала Украина
Режиссер: Сергей Сотниченко, Антон Гойда
В ролях: Макар Тихомиров, Наталия Бабенко, Артём Позняк, Константин Войтенко, Игорь Салимонов, Роман Жиров, Вячеслав Бабенков (II), Анастасия Карпенко, Зоя Барановская, Елена Оларь, Алина Костюкова, Игорь Волосовский
О фильме: Новый сотрудник специального отдела уголовного розыска Влад Романенко – молод, талантлив и принципиален. Еще в юности парень разорвал отношения со своим отцом, который был представителем криминального мира. Случилось это после того, как он не смог стать на пути отца и дать ход делу, за что до сих пор мучится угрызением совести. Новый виток этой драмы начинается, когда молодой оперативник влюбляется в свою сотрудницу – девушку Сашу. Тогда же всплывет прошлое семьи Влада, не позволяя ему больше делать вид, что у него нет отца...
Качество: WEBRip 1080p
Видео: MPEG-4 AVC, 5000 Кбит/с, 1920x1080, 25 кадр/с
Аудио: AC3, 2 ch, 192 Кбит/с
Продолжительность: 24 х ~ 00:43:36
Перевод: Не требуется
Субтитры: нет

Скриншоты

MediaInfo

General
Unique ID : 218098672477815073470537611899844948004 (0xA41446C32C713B0A82C024CA517FF024)
Complete name : C:\00\Отречение .2020. WEB-DL 1080p. Files-x\01. Отречение .2020. WEB-DL 1080p. Files-x.mkv
Format : Matroska
File size : 1.57 GiB
Duration : 43mn 36s
Overall bit rate : 5 159 Kbps
Encoded date : UTC 2020-03-10 20:36:18
Writing application : mkvmerge v7.8.0 ('River Man') 32bit built on Apr 3 2015 12:11:22
Writing library : libebml v1.3.1 + libmatroska v1.4.2
Video
ID : 1
Format : AVC
Format/Info : Advanced Video Codec
Format profile : High@L4.1
Format settings, CABAC : No
Format settings, ReFrames : 2 frames
Codec ID : V_MPEG4/ISO/AVC
Duration : 43mn 36s
Bit rate mode : Constant
Bit rate : 5 000 Kbps
Width : 1 920 pixels
Height : 1 080 pixels
Display aspect ratio : 16:9
Frame rate : 25.000 fps
Standard : PAL
Color space : YUV
Chroma subsampling : 4:2:0
Bit depth : 8 bits
Scan type : Progressive
Bits/(Pixel*Frame) : 0.096
Stream size : 1.48 GiB (94%)
Color primaries : BT.709-5, BT.1361, IEC 61966-2-4, SMPTE RP177
Transfer characteristics : BT.709-5, BT.1361
Matrix coefficients : BT.709-5, BT.1361, IEC 61966-2-4 709, SMPTE RP177
Audio
ID : 2
Format : AC-3
Format/Info : Audio Coding 3
Mode extension : CM (complete main)
Codec ID : A_AC3
Duration : 43mn 36s
Bit rate mode : Constant
Bit rate : 192 Kbps
Channel(s) : 2 channels
Channel positions : Front: L R
Sampling rate : 48.0 KHz
Bit depth : 16 bits
Compression mode : Lossy
Delay relative to video : -40ms
Stream size : 59.9 MiB (4%)

Раздача ведётся путём добавления новых серий

Внимание! Раздача ведётся путём добавления новых серий; при каждом добавлении создаётся новый торрент.
Чтобы начать докачку новой серии, пользователям необходимо сделать следующее:
1. Остановить скачивание;
2. Удалить старый торрент у себя из клиента (старые серии удалять не надо);
3. Скачать новый торрент и запустить его у себя в клиенте вместо старого, при этом указать клиенту путь в старую папку куда и должно происходить скачивание новых серий. Ваш клиент при этом должен произвести хеширование (проверку) старой папки и будет докачивать только те серии, которых у вас ещё нет. Старые серии при этом не удаляются, а продолжают раздаваться! Eсли вы уже удалили старые серии, то предотвратить повторную закачку старых серий можно, отжав галочку в соответствующих местах при запуске нового торрента.
Релиз от:
[Profile] [PM]
Display posts:    
Reply to topic

Current time is: 02-Apr 18:09

All times are UTC + 3



You cannot post new topics in this forum
You cannot reply to topics in this forum
You cannot edit your posts in this forum
You cannot delete your posts in this forum
You cannot vote in polls in this forum
You cannot attach files in this forum
You cannot download files in this forum