Мальчик русский (2019) WEB-DLRip-AVC от Files-x | iTunes

Reply to topic
 
Author Message

papa1951deda ®

Gender: Male

Longevity: 1 year 4 months

Posts: 535

Location: Казахстан

Post 13-Mar-2020 08:27

[Quote]

Мальчик русский Год выпуска: 2019
Жанр: Драма, военный, история
Выпущено: Россия, Ленфильм
Режиссер: Александр Золотухин
В ролях: Владимир Королёв, Михаил Бутурлов, Артем Лещик, Данил Тябин, Филипп Дьячков, Сергей Гончаренко, Евгений Сиротин, Антон Самусик, Евгений Чумак, Дмитрий Белов
О фильме: История о простом русском мальчике, который идет на фронт Первой мировой войны с наивной юношеской мечтой о славе и орденах. В первом же бою он теряет зрение. Его оставляют служить слухачом: через огромные металлические воронки он должен слушать приближение вражеских аэропланов и поднимать тревогу.
Качество: WEB-DLRip-AVC
Видео: MPEG 4 AVC, ~ 2 301 Кбит/с, 720x464, 24 кадр/с
Аудио: AC3, 6 ch, 384 Кбит/с | русский
Продолжительность: 01:12:00
Перевод: Не требуется [iTunes]
Субтитры: Отсутствуют

Скриншоты

MediaInfo

General
Unique ID : 249746465205505062130081321439263737645 (0xBBE36B69E25B170BAB63E04C9878472D)
Complete name : H:\fiiles x\Мальчик русский.2019.WEB-DLRip.Files-x.mkv
Format : Matroska
File size : 1.37 GiB
Duration : 1h 12mn
Overall bit rate : 2 685 Kbps
Encoded date : UTC 2020-03-12 16:22:01
Writing application : mkvmerge v7.8.0 ('River Man') 32bit built on Apr 3 2015 12:11:22
Writing library : libebml v1.3.1 + libmatroska v1.4.2
Video
ID : 1
Format : AVC
Format/Info : Advanced Video Codec
Format profile : High@L4.1
Format settings, CABAC : Yes
Format settings, ReFrames : 9 frames
Codec ID : V_MPEG4/ISO/AVC
Duration : 1h 12mn
Bit rate : 2 301 Kbps
Width : 720 pixels
Height : 464 pixels
Display aspect ratio : 1.552
Frame rate : 24.000 fps
Color space : YUV
Chroma subsampling : 4:2:0
Bit depth : 8 bits
Scan type : Progressive
Bits/(Pixel*Frame) : 0.287
Stream size : 1.15 GiB (84%)
Writing library : x264 core 146 r2538 121396c
Encoding settings : cabac=1 / ref=9 / deblock=1:-2:-1 / analyse=0x3:0x133 / me=umh / subme=9 / psy=1 / psy_rd=1.00:0.15 / mixed_ref=1 / me_range=32 / chroma_me=1 / trellis=2 / 8x8dct=1 / cqm=0 / deadzone=21,11 / fast_pskip=0 / chroma_qp_offset=-3 / threads=18 / lookahead_threads=3 / sliced_threads=0 / nr=0 / decimate=1 / interlaced=0 / bluray_compat=0 / constrained_intra=0 / bframes=9 / b_pyramid=2 / b_adapt=2 / b_bias=0 / direct=3 / weightb=1 / open_gop=0 / weightp=2 / keyint=250 / keyint_min=23 / scenecut=40 / intra_refresh=0 / rc=2pass / mbtree=0 / bitrate=2301 / ratetol=1.0 / qcomp=0.60 / qpmin=0 / qpmax=69 / qpstep=4 / cplxblur=20.0 / qblur=0.5 / ip_ratio=1.40 / pb_ratio=1.30 / aq=2:1.00
Color primaries : BT.709-5, BT.1361, IEC 61966-2-4, SMPTE RP177
Transfer characteristics : BT.709-5, BT.1361
Matrix coefficients : BT.709-5, BT.1361, IEC 61966-2-4 709, SMPTE RP177
Audio
ID : 2
Format : AC-3
Format/Info : Audio Coding 3
Mode extension : CM (complete main)
Codec ID : A_AC3
Duration : 1h 12mn
Bit rate mode : Constant
Bit rate : 384 Kbps
Channel(s) : 6 channels
Channel positions : Front: L C R, Side: L R, LFE
Sampling rate : 48.0 KHz
Bit depth : 16 bits
Compression mode : Lossy
Stream size : 200 MiB (14%)
Релиз от:
[Profile] [PM]
Display posts:    
Reply to topic

Current time is: 02-Apr 18:15

All times are UTC + 3



You cannot post new topics in this forum
You cannot reply to topics in this forum
You cannot edit your posts in this forum
You cannot delete your posts in this forum
You cannot vote in polls in this forum
You cannot attach files in this forum
You cannot download files in this forum