Новые русские сенсации Зараженная пожизненно (2020) HDTV 1080p от R.G.Generalfilm

Reply to topic
 
Author Message

White Smoke ®

Gender: Male

Longevity: 1 year 4 months

Posts: 122

Post 22-Mar-2020 23:47

[Quote]

Новые русские сенсации Зараженная пожизненно Год выпуска: 2020
Жанр: Документальный, ТВ-шоу, расследование
Выпущено: Россия, «АО Телекомпания НТВ»
Режиссер: Сергей Васильев, Василий Жариков
О фильме: Самая знаменитая жертва Чернобыля — та самая Людмила, которую искали журналисты всего мира. Ее муж первым оказался в радиоактивной ловушке. Ее предупреждали: не дотрагивайся до него и не целуй, иначе умрете оба! Но она не могла поступить иначе. Облученная на всю жизнь: драма главной заложницы Чернобыля — в «Новых русских сенсациях».
Качество: HDTV 1080p
Видео: MPEG-4 AVC,1920x1080 (16:9), 7050 kbps, 25 fps, 0,106 bpp
Аудио: AC3, 2 ch, 192 Кбит/с
Продолжительность: 00:46:19
Перевод : Не требуется
Cубтитры: нет

Скриншоты

MediaInfo

General
Unique ID : 239805515493742705067244353571146889521 (0xB468DCC0785CA8DBBC5FCFE2539AF931)
Complete name : E:\Запись с тв\Novye russkie sensacii Zarazhennaya pozhiznenno.2020.HDTV 1080p.by.White Smoke.R.G.Generalfilm.mkv
Format : Matroska
Format version : Version 4
File size : 1.87 GiB
Duration : 46 min 18 s
Overall bit rate mode : Constant
Overall bit rate : 5 793 kb/s
Movie name : Novye russkie sensacii Zarazhennaya pozhiznenno.2020.HDTV 1080p.by.White Smoke.R.G.Generalfilm.mkv
Encoded date : UTC 2020-03-22 20:24:16
Writing application : mkvmerge v6.8.0 ('Theme for Great Cities') 64bit built on Mar 2 2014 21:34:26
Writing library : libebml v1.3.0 + libmatroska v1.4.1
Cover : Yes
Attachments : cover.jpg
Video
ID : 1
Format : AVC
Format/Info : Advanced Video Codec
Format profile : High@L4.1
Format settings : CABAC / 3 Ref Frames
Format settings, CABAC : Yes
Format settings, RefFrames : 3 frames
Codec ID : V_MPEG4/ISO/AVC
Duration : 46 min 18 s
Bit rate mode : Constant
Bit rate : 5 486 kb/s
Nominal bit rate : 7 051 kb/s
Width : 1 920 pixels
Height : 1 080 pixels
Display aspect ratio : 16:9
Frame rate mode : Constant
Frame rate : 25.000 FPS
Standard : PAL
Color space : YUV
Chroma subsampling : 4:2:0
Bit depth : 8 bits
Scan type : Progressive
Bits/(Pixel*Frame) : 0.106
Stream size : 1.77 GiB (95%)
Default : Yes
Forced : No
Color range : Limited
Color primaries : BT.709
Transfer characteristics : BT.709
Matrix coefficients : BT.709
Audio
ID : 2
Format : AC-3
Format/Info : Audio Coding 3
Commercial name : Dolby Digital
Codec ID : A_AC3
Duration : 46 min 18 s
Bit rate mode : Constant
Bit rate : 192 kb/s
Channel(s) : 2 channels
Channel layout : L R
Sampling rate : 48.0 kHz
Frame rate : 31.250 FPS (1536 SPF)
Bit depth : 16 bits
Compression mode : Lossy
Stream size : 63.6 MiB (3%)
Service kind : Complete Main
Default : Yes
Forced : No
Релиз от:
[Profile] [PM]
Display posts:    
Reply to topic

Current time is: 02-Apr 18:11

All times are UTC + 3



You cannot post new topics in this forum
You cannot reply to topics in this forum
You cannot edit your posts in this forum
You cannot delete your posts in this forum
You cannot vote in polls in this forum
You cannot attach files in this forum
You cannot download files in this forum