Подруги поневоле / Sweethearts (2019) BDRip 1080p | iTunes

Reply to topic
 
Author Message

Monk ®

Gender: Male

Longevity: 1 year 4 months

Posts: 10910

Location: Казань

Post 23-Mar-2020 02:14

[Quote]

Подруги поневоле / Sweethearts Год выпуска: 2019
Жанр: Мелодрама, комедия, криминал
Выпущено: Германия, Warner Bros. Film Productions Germany, Hellinger / Doll Filmproduktion
Режиссер: Каролине Херфурт
В ролях: Каролине Херфурт, Ханна Херцшпрунг, Аннеке Ким Сарнау, Фредерик Лау, Рональд Церфельд, Луна Арвен Крюгер, Фредерик Линкеманн, Давид Шюттер, Мона Пирзад, Нилам Фарук
О фильме: По воле случая профессиональная воровка Мэл во время ограбления берет в заложницы девушку по имени Фрэнни. Оказавшись вместе в гонке со временем, преследуемые детективом полиции и подпольным миром Берлина, необычная парочка начинает работать вместе.
Качество: BDRip 1080p
Видео: MPEG-4 AVC, 7100 Кбит/с, 1920x800
Аудио: Русский (AC3, 6 ch, 384 Кбит/с), немецкий (DTS, 6 ch, 1509 Кбит/с)
Продолжительность: 01:46:53
Перевод: Дублированный [iTunes]
Субтитры: Немецкие

Скриншоты


MediaInfo

Format : Matroska
Format version : Version 4 / Version 2
File size : 6.72 GiB
Duration : 1 h 46 min
Overall bit rate : 9 005 kb/s
Movie name : ELEKTRI4KA.UNIONGANG
Encoded date : UTC 2020-02-19 22:07:13
Writing application : mkvmerge v8.3.0 ('Over the Horizon') 64bit
Writing library : libebml v1.3.1 + libmatroska v1.4.2
Video
ID : 1
Format : AVC
Format/Info : Advanced Video Codec
Format profile : High@L4.1
Format settings, CABAC : Yes
Format settings, Reference frames : 5 frames
Codec ID : V_MPEG4/ISO/AVC
Duration : 1 h 46 min
Bit rate : 7 092 kb/s
Width : 1 920 pixels
Height : 800 pixels
Display aspect ratio : 2.40:1
Frame rate mode : Constant
Frame rate : 23.976 (24000/1001) FPS
Color space : YUV
Chroma subsampling : 4:2:0
Bit depth : 8 bits
Scan type : Progressive
Bits/(Pixel*Frame) : 0.193
Stream size : 5.29 GiB (79%)
Writing library : x264 core 157 r2935 545de2f
Encoding settings : cabac=1 / ref=5 / deblock=1:-1:-1 / analyse=0x3:0x113 / me=umh / subme=8 / psy=1 / psy_rd=0.99:0.01 / mixed_ref=1 / me_range=16 / chroma_me=1 / trellis=1 / 8x8dct=1 / cqm=0 / deadzone=21,11 / fast_pskip=0 / chroma_qp_offset=-3 / threads=12 / lookahead_threads=2 / sliced_threads=0 / nr=0 / decimate=1 / interlaced=0 / bluray_compat=0 / constrained_intra=0 / bframes=3 / b_pyramid=2 / b_adapt=2 / b_bias=0 / direct=3 / weightb=1 / open_gop=0 / weightp=2 / keyint=240 / keyint_min=23 / scenecut=40 / intra_refresh=0 / rc_lookahead=40 / rc=crf / mbtree=1 / crf=17.0 / qcomp=0.60 / qpmin=0 / qpmax=69 / qpstep=4 / vbv_maxrate=62500 / vbv_bufsize=78125 / crf_max=0.0 / nal_hrd=none / filler=0 / ip_ratio=1.40 / aq=1:1.00
Default : Yes
Forced : No
Audio #1
ID : 2
Format : AC-3
Format/Info : Audio Coding 3
Mode extension : CM (complete main)
Format settings, Endianness : Big
Codec ID : A_AC3
Duration : 1 h 46 min
Bit rate mode : Constant
Bit rate : 384 kb/s
Channel(s) : 6 channels
Channel positions : Front: L C R, Side: L R, LFE
Sampling rate : 48.0 kHz
Frame rate : 31.250 FPS (1536 spf)
Bit depth : 16 bits
Compression mode : Lossy
Stream size : 294 MiB (4%)
Title : iTunes
Language : Russian
Default : Yes
Forced : No
Audio #2
ID : 3
Format : DTS
Format/Info : Digital Theater Systems
Mode : 16
Format settings, Endianness : Big
Codec ID : A_DTS
Duration : 1 h 46 min
Bit rate mode : Constant
Bit rate : 1 509 kb/s
Channel(s) : 6 channels
Channel positions : Front: L C R, Side: L R, LFE
Sampling rate : 48.0 kHz
Frame rate : 93.750 FPS (512 spf)
Bit depth : 24 bits
Compression mode : Lossy
Stream size : 1.13 GiB (17%)
Title : Original
Language : German
Default : No
Forced : No
Text
ID : 4
Format : PGS
Muxing mode : zlib
Codec ID : S_HDMV/PGS
Codec ID/Info : Picture based subtitle format used on BDs/HD-DVDs
Duration : 1 h 45 min
Bit rate : 18.7 kb/s
Count of elements : 2275
Stream size : 14.1 MiB (0%)
Title : complete
Language : German
Default : No
Forced : No
Menu
00:00:00.000 : en:Chapter 01
00:08:04.525 : en:Chapter 02
00:17:54.113 : en:Chapter 03
00:27:07.123 : en:Chapter 04
00:35:48.852 : en:Chapter 05
00:45:09.996 : en:Chapter 06
00:52:07.954 : en:Chapter 07
01:02:39.502 : en:Chapter 08
01:08:57.879 : en:Chapter 09
01:19:06.570 : en:Chapter 10
01:30:11.483 : en:Chapter 11
01:39:05.767 : en:Chapter 12
[Profile] [PM]
Display posts:    
Reply to topic

Current time is: 02-Apr 17:46

All times are UTC + 3



You cannot post new topics in this forum
You cannot reply to topics in this forum
You cannot edit your posts in this forum
You cannot delete your posts in this forum
You cannot vote in polls in this forum
You cannot attach files in this forum
You cannot download files in this forum