Смерть нам к лицу (2019) WEB-DLRip от GeneralFilm

Reply to topic
 
Author Message

Monk ®

Gender: Male

Longevity: 1 year 4 months

Posts: 10910

Location: Казань

Post 23-Mar-2020 02:50

[Quote]

Смерть нам к лицу Год выпуска: 2019
Жанр: Комедия, мелодрама
Выпущено: Россия, «Каро»
Режиссер: Борис Гуц
В ролях: Александра Быстржицкая, Даниил Пугаёв, Екатерина Волкова, Наталья Павленкова, Анна Глаубэ, Полина Ауг, Кирилл Ковбас, Ольга Кавалай-Аксенова, Евгений Пуцыло, Дмитрий Орлович
О фильме: Можно ли найти 4 миллиона за 4 дня, если ты работаешь курьером, родителям на тебя наплевать, а твой лучший друг — идиот? Взять в долг, продать последнее, стать порноактером — сделать все что угодно, лишь бы любимая не умерла.
Качество: WEB-DLRip
Видео: 720x400 (16:9), 25 fps, XviD build 73 ~1228 kbps avg, 0.171 bit/pixel
Аудио: 48 kHz, MPEG Layer 3, 2 ch, ~128.00 kbps avg
Продолжительность: 01:16:13
Перевод: Не требуется
Субтитры: Нет

Скриншоты


MediaInfo

General
Complete name : D:RazdachiSmertj.Nam.K.Litsu.2019.WEB-DLRip.GeneralFilm.avi
Format : AVI
Format/Info : Audio Video Interleave
File size : 745 MiB
Duration : 1 h 16 min
Overall bit rate : 1 366 kb/s
Writing application : VirtualDubMod 1.5.10.3 | www.virtualdub-fr.org || (build 2550/release)
Writing library : VirtualDubMod build 2550/release
Video
ID : 0
Format : MPEG-4 Visual
Format profile : Advanced Simple@L5
Format settings : BVOP1 / Custom Matrix
Format settings, BVOP : 1
Format settings, QPel : No
Format settings, GMC : No warppoints
Format settings, Matrix : Custom
Codec ID : XVID
Codec ID/Hint : XviD
Duration : 1 h 16 min
Bit rate : 1 228 kb/s
Width : 720 pixels
Height : 400 pixels
Display aspect ratio : 16:9
Frame rate : 25.000 FPS
Color space : YUV
Chroma subsampling : 4:2:0
Bit depth : 8 bits
Scan type : Progressive
Compression mode : Lossy
Bits/(Pixel*Frame) : 0.171
Stream size : 670 MiB (90%)
Writing library : XviD 73
Audio
ID : 1
Format : MPEG Audio
Format version : Version 1
Format profile : Layer 3
Codec ID : 55
Codec ID/Hint : MP3
Duration : 1 h 16 min
Bit rate mode : Constant
Bit rate : 128 kb/s
Channel(s) : 2 channels
Sampling rate : 48.0 kHz
Frame rate : 41.667 FPS (1152 SPF)
Compression mode : Lossy
Stream size : 69.8 MiB (9%)
Alignment : Aligned on interleaves
Interleave, duration : 40 ms (1.00 video frame)
Interleave, preload duratio : 504 ms
Writing library : LAME3.99r
Encoding settings : -m s -V 4 -q 2 -lowpass 17 -b 128
Релиз от:
[Profile] [PM]
Display posts:    
Reply to topic

Current time is: 02-Apr 19:46

All times are UTC + 3



You cannot post new topics in this forum
You cannot reply to topics in this forum
You cannot edit your posts in this forum
You cannot delete your posts in this forum
You cannot vote in polls in this forum
You cannot attach files in this forum
You cannot download files in this forum