Крик тишины (2019) WEB-DL 1080p | Лицензия

Reply to topic
 
Author Message

Monk ®

Gender: Male

Longevity: 1 year 4 months

Posts: 10910

Location: Казань

Post 23-Mar-2020 03:08

[Quote]

Крик тишины Год выпуска: 2019
Жанр: Военный, драма, социальная драма, экранизация
Выпущено: Россия, Мосфильм
Режиссер: Владимир Потапов
В ролях: Алина Саргина, Лева Гиршов, Артём Быстров, Светлана Смирнова-Марцинкевич, Владимир Меньшов, Надежда Маркина, Людмила Егорова, Наталия Фиссон, Сергей Паршин, Мария Кононова, Александр Жданов
О фильме: По повести Тамары Цинберг "Седьмая симфония". Блокадный Ленинград. Февраль 1942 года. Заканчивается самая страшная блокадная зима. Невыносимый голод и холод. Нина Воронова совсем отчаялась. Ее трехлетний сын Митя ослабел, а карточки на хлеб уже отоварены на два дня вперед. Последняя надежда - эвакуация. Но с маленьким детьми не берут. Тогда женщина идет на чудовищный шаг - эвакуируется, оставив сына одного в промерзшей квартире. Во время налета мальчика спасает девочка-подросток Катя Никонорова. У самой Кати никого не осталось - отец погиб на фронте, мама недавно умерла от голода. Они с малышом никому не нужны. Девочка выдает Митю за своего брата и обещает себе сделать все, чтобы Митя выжил...
Качество: WEB-DL 1080p
Видео: MPEG-4 AVC, 5120 Кбит/с, 1920x1038, 25 кадр/с
Аудио: Русский (АС3, 6 ch, 320 Кбит/с)
Продолжительность: 01:36:51
Перевод: Не требуется [Лицензия]

Скриншоты


MediaInfo

Format : Matroska
Format version : Version 4 / Version 2
File size : 3.67 GiB
Duration : 1 h 36 min
Overall bit rate : 5 422 kb/s
Movie name : ELEKTRI4KA.UNIONGANG
Encoded date : UTC 2020-02-23 21:04:21
Writing application : mkvmerge v8.3.0 ('Over the Horizon') 64bit
Writing library : libebml v1.3.1 + libmatroska v1.4.2
Video
ID : 1
Format : AVC
Format/Info : Advanced Video Codec
Format profile : High@L4
Format settings, CABAC : Yes
Format settings, Reference frames : 4 frames
Codec ID : V_MPEG4/ISO/AVC
Duration : 1 h 36 min
Bit rate : 5 120 kb/s
Width : 1 920 pixels
Height : 1 038 pixels
Display aspect ratio : 1.85:1
Frame rate mode : Constant
Frame rate : 25.000 FPS
Color space : YUV
Chroma subsampling : 4:2:0
Bit depth : 8 bits
Scan type : Progressive
Bits/(Pixel*Frame) : 0.103
Stream size : 3.45 GiB (94%)
Writing library : x264 core 148
Encoding settings : cabac=1 / ref=3 / deblock=1:0:0 / analyse=0x3:0x113 / me=hex / subme=7 / psy=1 / psy_rd=1.00:0.00 / mixed_ref=1 / me_range=16 / chroma_me=1 / trellis=1 / 8x8dct=1 / cqm=0 / deadzone=21,11 / fast_pskip=1 / chroma_qp_offset=-2 / threads=32 / lookahead_threads=5 / sliced_threads=0 / nr=0 / decimate=1 / interlaced=0 / bluray_compat=0 / constrained_intra=0 / bframes=6 / b_pyramid=2 / b_adapt=1 / b_bias=0 / direct=1 / weightb=1 / open_gop=0 / weightp=2 / keyint=50 / keyint_min=26 / scenecut=0 / intra_refresh=0 / rc_lookahead=40 / rc=2pass / mbtree=1 / bitrate=5120 / ratetol=1.0 / qcomp=0.60 / qpmin=0 / qpmax=69 / qpstep=4 / cplxblur=20.0 / qblur=0.5 / vbv_maxrate=7680 / vbv_bufsize=20480 / nal_hrd=none / filler=0 / ip_ratio=1.40 / aq=1:1.00
Language : Russian
Default : Yes
Forced : No
Audio
ID : 2
Format : AC-3
Format/Info : Audio Coding 3
Mode extension : CM (complete main)
Format settings, Endianness : Big
Codec ID : A_AC3
Duration : 1 h 36 min
Bit rate mode : Constant
Bit rate : 320 kb/s
Channel(s) : 6 channels
Channel positions : Front: L C R, Side: L R, LFE
Sampling rate : 48.0 kHz
Frame rate : 31.250 FPS (1536 spf)
Bit depth : 16 bits
Compression mode : Lossy
Stream size : 222 MiB (6%)
Title : Lic R5
Language : Russian
Default : Yes
Forced : No
[Profile] [PM]
Display posts:    
Reply to topic

Current time is: 02-Apr 19:18

All times are UTC + 3



You cannot post new topics in this forum
You cannot reply to topics in this forum
You cannot edit your posts in this forum
You cannot delete your posts in this forum
You cannot vote in polls in this forum
You cannot attach files in this forum
You cannot download files in this forum