Соблазн / Sibyl (2019) HDRip от Generalfilm | КПК | iTunes

Reply to topic
 
Author Message

sergey82 ®

Gender: Male

Longevity: 1 year 4 months

Posts: 184

Location: Украина

Post 25-Mar-2020 14:20

[Quote]

Соблазн / Sibyl Год выпуска: 2019
Жанр: Триллер, драма
Выпущено: Франция, Бельгия, France 2 Cinéma, Les Films de Pierre, Page 114
Режиссер: Жюстин Трие
В ролях: Виржини Эфира, Адель Экзаркопулос, Гаспар Ульель, Сандра Хюллер, Лор Калами, Нильс Шнайдер, Поль Ами, Артур Харари, Адриан Беллемар, Джин Арра-Беллангер
О фильме: Сибил — опытная и успешная женщина-психотерапевт, желающая отказаться от практики, чтобы воплотить давнее желание написать книгу. В тот момент, когда ей будет так нужно вдохновение, рядом окажется юная актриса Марго, ищущая помощи и поддержки. Сибил, очарованная новой пациенткой, будет всё глубже погружаться в чужую историю, не замечая, как её собственная жизнь перевернётся с ног на голову.
Качество: HDRip | КПК
Видео: MPEG-4 AVC, 480х200, 400 kb/s, 23.976 FPS
Аудио: AAC LC, 2 ch, 128 kb/s
Продолжительность: 01:40:56
Перевод / Озвучка: Профессиональный [многоголосый] [iTunes]
Cубтитры: нет

Скриншоты

MediaInfo

General
Complete name : D:\Изготовление рипа\Sibyl.2019.HDRip.KPK.by.sergey82.RG GeneralFilm.mp4
Format : MPEG-4
Format profile : Base Media
Codec ID : isom (isom/avc1/iso6)
File size : 383 MiB
Duration : 1 h 40 min
Overall bit rate mode : Variable
Overall bit rate : 531 kb/s
Encoded date : UTC 2020-03-25 10:56:14
Tagged date : UTC 2020-03-25 10:56:14
Video
ID : 1
Format : AVC
Format/Info : Advanced Video Codec
Format profile : High@L4.1
Format settings : CABAC / 10 Ref Frames
Format settings, CABAC : Yes
Format settings, Reference : 10 frames
Codec ID : avc1
Codec ID/Info : Advanced Video Coding
Duration : 1 h 40 min
Bit rate : 400 kb/s
Maximum bit rate : 2 109 kb/s
Width : 480 pixels
Height : 200 pixels
Display aspect ratio : 2.40:1
Frame rate mode : Constant
Frame rate : 23.976 (24000/1001) FPS
Color space : YUV
Chroma subsampling : 4:2:0
Bit depth : 8 bits
Scan type : Progressive
Bits/(Pixel*Frame) : 0.174
Stream size : 288 MiB (75%)
Title : 264@GPAC0.5.2-DEV-rev248-g39d5978-master
Writing library : x264 core 146 r2538 121396c
Encoding settings : cabac=1 / ref=10 / deblock=1:-3:-3 / analyse=0x3:0x113 / me=umh / subme=11 / psy=1 / psy_rd=1.00:0.00 / mixed_ref=1 / me_range=48 / chroma_me=1 / trellis=2 / 8x8dct=1 / cqm=0 / deadzone=21,11 / fast_pskip=0 / chroma_qp_offset=-2 / threads=6 / lookahead_threads=1 / sliced_threads=0 / nr=0 / decimate=0 / interlaced=0 / bluray_compat=0 / constrained_intra=0 / bframes=10 / b_pyramid=2 / b_adapt=2 / b_bias=0 / direct=3 / weightb=1 / open_gop=0 / weightp=2 / keyint=240 / keyint_min=23 / scenecut=40 / intra_refresh=0 / rc_lookahead=40 / rc=2pass / mbtree=0 / bitrate=400 / ratetol=1.0 / qcomp=0.60 / qpmin=0 / qpmax=69 / qpstep=4 / cplxblur=20.0 / qblur=0.5 / vbv_maxrate=14000 / vbv_bufsize=14000 / nal_hrd=none / filler=0 / ip_ratio=1.40 / pb_ratio=1.30 / aq=1:1.00
Encoded date : UTC 2020-03-25 10:56:14
Tagged date : UTC 2020-03-25 10:56:19
Codec configuration box : avcC
Audio
ID : 2
Format : AAC LC
Format/Info : Advanced Audio Codec Low Complexity
Codec ID : mp4a-40-2
Duration : 1 h 40 min
Bit rate mode : Variable
Bit rate : 128 kb/s
Maximum bit rate : 140 kb/s
Channel(s) : 2 channels
Channel layout : L R
Sampling rate : 48.0 kHz
Frame rate : 46.875 FPS (1024 SPF)
Compression mode : Lossy
Stream size : 92.4 MiB (24%)
Encoded date : UTC 2020-03-25 10:02:46
Tagged date : UTC 2020-03-25 10:56:19
Релиз от:
[Profile] [PM]
Display posts:    
Reply to topic

Current time is: 02-Apr 18:30

All times are UTC + 3



You cannot post new topics in this forum
You cannot reply to topics in this forum
You cannot edit your posts in this forum
You cannot delete your posts in this forum
You cannot vote in polls in this forum
You cannot attach files in this forum
You cannot download files in this forum