257 причин, чтобы жить [1 сезон: 1-3 серии из 13] (2020) WEBRip от GeneralFilm

Reply to topic
 
Author Message

vsobbol ®

Gender: Male

Longevity: 1 year 4 months

Posts: 495

Location: Донецк

Post 26-Mar-2020 01:32

[Quote]

257 причин, чтобы жить
Год выпуска: 2020
Жанр: Драма, комедия
Выпущено: Россия, START STUDIO, СУПЕР продакшн, Киностудия "Yellow, Black and White"
Режиссер: Максим Свешников
В ролях: Полина Максимова, Анна Невская, Сергей Годин, Роман Маякин, Анастасия Попова (II), Дарья Руденок, Егор Корешков, Мария Фомина, Юлия Топольницкая, Максим Лагашкин, Тимоти Сэлл, Маргарита Дьяченкова
О фильме: День, когда 30-летняя Женя Коврова победила тяжелую болезнь, стал не самым счастливым, а самым кошмарным в ее жизни. Оказалось, что здоровой она не нужна ни своему парню, который был с ней из жалости, ни сестре, которая умело зарабатывала на благотворительных сборах. А коллеги по работе и вовсе не надеялись на выздоровление Жени и не ждали ее возвращения. Как найти в себе силы начать новую жизнь, если она так больно бьет по голове? Ответом становится дневник, в котором Женя случайно находит список из 257 желаний - сложных и простых, приземленных и возвышенных, серьезных и по-детски глупых. Все это Женя хотела исполнить после выздоровления, а, значит, сейчас у нее появилось 257 причин не бояться трудностей, взглянуть на мир по-другому, начать жить на полную катушку и стать, наконец, счастливой!

Качество: WEBRip
Видео: XviD build 73, 720x304 (2.35:1), 25.000 fps, ~ 1400 Kbps (~ 0.270 bit/pixel)
Аудио: 48.0 kHz, MP3, 2/0 ch, 192 kbps
Продолжительность: 3 x ~ 00:25:00
Перевод: Не требуется [Русский]
Cубтитры: нет

Скриншоты

MediaInfo

General
Complete name : D:\Razdachi\257.Prichin.Chtoby.Zhitj.2020WEBRip.GeneralFilm\02.257.Prichin.Chtoby.Zhitj.avi
Format : AVI
Format/Info : Audio Video Interleave
File size : 279 MiB
Duration : 22 min 59 s
Overall bit rate : 1 696 kb/s
Writing application : VirtualDubMod 1.5.10.3 | www.virtualdub-fr.org || (build 2550/release)
Writing library : VirtualDubMod build 2550/release
Video
ID : 0
Format : MPEG-4 Visual
Format profile : Advanced Simple@L5
Format settings : BVOP1 / Custom Matrix
Format settings, BVOP : 1
Format settings, QPel : No
Format settings, GMC : No warppoints
Format settings, Matrix : Custom
Codec ID : XVID
Codec ID/Hint : XviD
Duration : 22 min 59 s
Bit rate : 1 495 kb/s
Width : 720 pixels
Height : 304 pixels
Display aspect ratio : 2.35:1
Frame rate : 25.000 FPS
Color space : YUV
Chroma subsampling : 4:2:0
Bit depth : 8 bits
Scan type : Progressive
Compression mode : Lossy
Bits/(Pixel*Frame) : 0.273
Stream size : 246 MiB (88%)
Writing library : XviD 73
Audio
ID : 1
Format : MPEG Audio
Format version : Version 1
Format profile : Layer 3
Codec ID : 55
Codec ID/Hint : MP3
Duration : 22 min 59 s
Bit rate mode : Constant
Bit rate : 192 kb/s
Channel(s) : 2 channels
Sampling rate : 48.0 kHz
Frame rate : 41.667 FPS (1152 SPF)
Compression mode : Lossy
Stream size : 31.6 MiB (11%)
Alignment : Aligned on interleaves
Interleave, duration : 40 ms (1.00 video frame)
Interleave, preload duratio : 504 ms
Writing library : LAME3.99r
Encoding settings : -m s -V 4 -q 2 -lowpass 18.6 -b 192

Внимание! Раздача ведётся путём добавления новых серий

Раздача ведётся путём добавления новых серий, при каждом добавлении создаётся новый торрент. Чтобы начать докачку новой серии, пользователям необходимо сделать следующее:
- Остановить скачивание.
- Удалить старый торрент у себя из клиента (старые серии удалять не надо).
- Скачать новый торрент и запустить его у себя в клиенте вместо старого, при этом указать клиенту путь в старую папку куда и должно происходить скачивание новых серий.
Ваш клиент при этом должен произвести хеширование (проверку) старой папки (если не производит сам - помогите ему сделать это), и будет докачивать только те серии которых у вас ещё нет. Старые серии при этом не удаляются, а продолжают раздаваться!
Если вы уже удалили старые серии, то предотвратить повторную закачку старых серий можно, отжав галочку в соответствующих местах при запуске нового торрента. По возможности, желательно не удалять старые серии как можно дольше, чтобы релизер не столько продолжал раздавать старые серии, а смог сконцентрироваться на новых.
Релиз от:
[Profile] [PM]
Display posts:    
Reply to topic

Current time is: 02-Apr 19:49

All times are UTC + 3



You cannot post new topics in this forum
You cannot reply to topics in this forum
You cannot edit your posts in this forum
You cannot delete your posts in this forum
You cannot vote in polls in this forum
You cannot attach files in this forum
You cannot download files in this forum