257 причин, чтобы жить [1-3 серии из 13] (2020) WEBRip-AVC от Files-x

Reply to topic
 
Author Message

papa1951deda ®

Gender: Male

Longevity: 1 year 4 months

Posts: 535

Location: Казахстан

Post 26-Mar-2020 06:49

[Quote]

257 причин, чтобы жить Год выпуска: 2020
Жанр: Драма, комедия
Выпущено: Россия, START STUDIO, СУПЕР продакшн, Киностудия "Yellow, Black and White"
Режиссер: Максим Свешников
В ролях: Полина Максимова, Анна Невская, Сергей Годин, Роман Маякин, Анастасия Попова (II), Дарья Руденок, Егор Корешков, Мария Фомина, Юлия Топольницкая, Максим Лагашкин, Тимоти Сэлл, Маргарита Дьяченкова
О фильме: День, когда 30-летняя Женя Коврова победила тяжелую болезнь, стал не самым счастливым, а самым кошмарным в ее жизни. Оказалось, что здоровой она не нужна ни своему парню, который был с ней из жалости, ни сестре, которая умело зарабатывала на благотворительных сборах. А коллеги по работе и вовсе не надеялись на выздоровление Жени и не ждали ее возвращения. Как найти в себе силы начать новую жизнь, если она так больно бьет по голове? Ответом становится дневник, в котором Женя случайно находит список из 257 желаний - сложных и простых, приземленных и возвышенных, серьезных и по-детски глупых. Все это Женя хотела исполнить после выздоровления, а, значит, сейчас у нее появилось 257 причин не бояться трудностей, взглянуть на мир по-другому, начать жить на полную катушку и стать, наконец, счастливой!
Качество: WEBRip-AVC
Видео: MPEG-4 AVC, ~ 1600 Кбит/с, 720x304, 25 кадр/с
Аудио: AC3, 2 ch, 192 Кбит/с
Продолжительность: 3 x ~ 00:23:00
Перевод: Не требуется
Cубтитры: нет
Внимание! Присутствует ненормативная лексика

Скриншоты

MediaInfo

General
Unique ID : 203746388422145856872631755963954872249 (0x994820867FD1B737B4084F21ECE3BFB9)
Complete name : H:\fiiles x\257 причин, чтобы жить.2020.WEB-DLRip.Files-x\01. 257 причин, чтобы жить.2020.WEB-DLRip.Files-x.mkv
Format : Matroska
File size : 295 MiB
Duration : 22mn 59s
Overall bit rate : 1 793 Kbps
Encoded date : UTC 2020-03-25 23:27:01
Writing application : mkvmerge v7.8.0 ('River Man') 32bit built on Apr 3 2015 12:11:22
Writing library : libebml v1.3.1 + libmatroska v1.4.2
Video
ID : 1
Format : AVC
Format/Info : Advanced Video Codec
Format profile : High@L4.1
Format settings, CABAC : Yes
Format settings, ReFrames : 9 frames
Codec ID : V_MPEG4/ISO/AVC
Duration : 22mn 59s
Bit rate : 1 600 Kbps
Width : 720 pixels
Height : 304 pixels
Display aspect ratio : 2.35:1
Frame rate : 25.000 fps
Color space : YUV
Chroma subsampling : 4:2:0
Bit depth : 8 bits
Scan type : Progressive
Bits/(Pixel*Frame) : 0.292
Stream size : 257 MiB (87%)
Writing library : x264 core 146 r2538 121396c
Encoding settings : cabac=1 / ref=9 / deblock=1:-2:-1 / analyse=0x3:0x133 / me=umh / subme=9 / psy=1 / psy_rd=1.00:0.15 / mixed_ref=1 / me_range=32 / chroma_me=1 / trellis=2 / 8x8dct=1 / cqm=0 / deadzone=21,11 / fast_pskip=0 / chroma_qp_offset=-3 / threads=18 / lookahead_threads=2 / sliced_threads=0 / nr=0 / decimate=1 / interlaced=0 / bluray_compat=0 / constrained_intra=0 / bframes=9 / b_pyramid=2 / b_adapt=2 / b_bias=0 / direct=1 / weightb=1 / open_gop=0 / weightp=2 / keyint=250 / keyint_min=25 / scenecut=40 / intra_refresh=0 / rc=2pass / mbtree=0 / bitrate=1600 / ratetol=1.0 / qcomp=0.60 / qpmin=0 / qpmax=69 / qpstep=4 / cplxblur=20.0 / qblur=0.5 / ip_ratio=1.40 / pb_ratio=1.30 / aq=2:1.00
Color primaries : BT.709-5, BT.1361, IEC 61966-2-4, SMPTE RP177
Transfer characteristics : BT.709-5, BT.1361
Matrix coefficients : BT.709-5, BT.1361, IEC 61966-2-4 709, SMPTE RP177
Audio
ID : 2
Format : AC-3
Format/Info : Audio Coding 3
Mode extension : CM (complete main)
Codec ID : A_AC3
Duration : 22mn 59s
Bit rate mode : Constant
Bit rate : 192 Kbps
Channel(s) : 2 channels
Channel positions : Front: L R
Sampling rate : 48.0 KHz
Bit depth : 16 bits
Compression mode : Lossy
Stream size : 31.6 MiB (11%)

Внимание! Раздача ведётся путём добавления новых серий

Раздача ведётся путём добавления новых серий, при каждом добавлении создаётся новый торрент. Чтобы начать докачку новой серии, пользователям необходимо сделать следующее:
- Остановить скачивание.
- Удалить старый торрент у себя из клиента (старые серии удалять не надо).
- Скачать новый торрент и запустить его у себя в клиенте вместо старого, при этом указать клиенту путь в старую папку куда и должно происходить скачивание новых серий.
Ваш клиент при этом должен произвести хеширование (проверку) старой папки (если не производит сам - помогите ему сделать это), и будет докачивать только те серии которых у вас ещё нет. Старые серии при этом не удаляются, а продолжают раздаваться!
Релиз от:
[Profile] [PM]
Display posts:    
Reply to topic

Current time is: 02-Apr 18:19

All times are UTC + 3



You cannot post new topics in this forum
You cannot reply to topics in this forum
You cannot edit your posts in this forum
You cannot delete your posts in this forum
You cannot vote in polls in this forum
You cannot attach files in this forum
You cannot download files in this forum