Квартирник у Маргулиса - Кипелов [24.04] (2020) HDTV 1080p от Generalfilm

Reply to topic
 
Author Message

ValkiriaGF ®

Gender: Female

Longevity: 1 year 6 months

Posts: 30

Location: Северная Пальмира

Post 26-Apr-2020 18:33

[Quote]

Квартирник у Маргулиса - Кипелов Год выпуска: 2020
Жанр: Музыкальный
Выпущено: Россия, Телеканал "НТВ HD"
Ведущий: Евгений Маргулис
О фильме: Гостеми нового выпуска «Квартирника НТВ у Маргулиса» стали рок-группа «Кипелов», основанная в 2002 году под руководством Валерия Кипелова.
Музыканты исполнят песни «Выше», «Дыхание последней любви», «Реки времен», а также «Беспечный ангел», посвятив ее 35-летнему юбилею группы «Ария».
Соавтором текстов песен коллектива стала советская и российская поэтесса, журналистка, переводчица и издатель Маргарита Пушкина, наиболее известная по сотрудничеству с русскими метал-группами. Валерий и Маргарита расскажут о том, как вместе пишут тексты песен, и ответят на вопрос о романтических отношениях.
Валерий Кипелов и Евгений Маргулис обсудят свои музыкальные пристрастия, начиная от классической оперы и заканчивая игрой на баяне и исполнением народных песен в семейном кругу.
«Знакомы мы миллион лет, пересекались столько же, уговаривал прийти к нам – полмиллиона. Зато, когда Кипелов влетел беспечным ангелом на "Квартирник", время аннулировалось! Наобщались по-взрослому!» – поделился Евгений Маргулис.
Качество: HDTV 1080p
Видео: MPEG-4, AVC, 7051 Кбит/с, 1920x1080, 25 кадр/с
Аудио: AC3, 2 ch, 192 Кбит/с
Продолжительность: 01:10:24
Перевод / Озвучка: Не требуется [Русский]
Cубтитры: нет
Присутствует логотип и вставки канала - сидим дома и живой звук.

Скриншоты


[/screens]

MediaInfo

General
Unique ID : 233952102510161170733713954168608503018 (0xB0018935D517D738AE247832AE65B4EA)
Complete name : D:торрентготовыеKvartirnik u Margulisa - Kipelov.2020.HDTV 1080p.by.ValkiriaGF.RG.Generalfilm.mkv
Format : Matroska
Format version : Version 4 / Version 2
File size : 3.56 GiB
Duration : 1h 10mn
Overall bit rate mode : Constant
Overall bit rate : 7 235 Kbps
Movie name : Kvartirnik u Margulisa - Kipelov.2020.HDTV 1080p.by.ValkiriaGF.RG.Generalfilm.mkv
Encoded date : UTC 2020-04-25 22:43:28
Writing application : mkvmerge v6.8.0 ('Theme for Great Cities') 64bit built on Mar 2 2014 21:34:26
Writing library : libebml v1.3.0 + libmatroska v1.4.1
Cover : Yes
Attachments : cover.jpg
Video
ID : 1
Format : AVC
Format/Info : Advanced Video Codec
Format profile : High@L4.1
Format settings, CABAC : Yes
Format settings, ReFrames : 3 frames
Format settings, GOP : M=3, N=33
Codec ID : V_MPEG4/ISO/AVC
Duration : 1h 10mn
Bit rate mode : Constant
Bit rate : 7 051 Kbps
Width : 1 920 pixels
Height : 1 080 pixels
Display aspect ratio : 16:9
Frame rate mode : Constant
Frame rate : 25.000 fps
Standard : PAL
Color space : YUV
Chroma subsampling : 4:2:0
Bit depth : 8 bits
Scan type : Progressive
Bits/(Pixel*Frame) : 0.136
Stream size : 3.39 GiB (95%)
Default : Yes
Forced : No
Color range : Limited
Color primaries : BT.709
Transfer characteristics : BT.709
Matrix coefficients : BT.709
Audio
ID : 2
Format : AC-3
Format/Info : Audio Coding 3
Mode extension : CM (complete main)
Format settings, Endianness : Big
Codec ID : A_AC3
Duration : 1h 10mn
Bit rate mode : Constant
Bit rate : 192 Kbps
Channel(s) : 2 channels
Channel positions : Front: L R
Sampling rate : 48.0 KHz
Frame rate : 31.250 fps (1536 spf)
Compression mode : Lossy
Stream size : 96.7 MiB (3%)
Default : Yes
Forced : No

Треклист

1. Власть огня
2. Выше
3. Песня на английском языке
4. Дыхание последней любви
5. Ой, да не вечер
6. Время вспять
7. Реки времен
8. Беспечный ангел
9. Путь в никуда
10. Я свободен
11. Встань, страх преодолей / Тореро / Любо, братцы, любо / Воля и разум
Релиз от:


Last edited by ValkiriaGF on 2020-04-26 22:06; edited 1 time in total
[Profile] [PM]

ValkiriaGF ®

Gender: Female

Longevity: 1 year 6 months

Posts: 30

Location: Северная Пальмира

Post 26-Apr-2020 18:37 (after 4 minutes)

[Quote]

Присутствует логотип и вставки канала - сидим дома и живой звук.
Спасибо за помощь в записи White Smoke
[Profile] [PM]
Display posts:    
Reply to topic

Current time is: 27-May 12:09

All times are UTC + 3



You cannot post new topics in this forum
You cannot reply to topics in this forum
You cannot edit your posts in this forum
You cannot delete your posts in this forum
You cannot vote in polls in this forum
You cannot attach files in this forum
You cannot download files in this forum