Вальгалла: Рагнарёк / Valhalla (2019) BDRip-AVC [DUB] от R.G.Generalfilm | iTunes

Reply to topic
 
Author Message

HardwareMining ®

Gender: Male

Longevity: 7 months 11 days

Posts: 8

Post 19-May-2020 17:31

[Quote]

Вальгалла: Рагнарёк / Valhalla
«Великая битва Тора»
Год выпуска: 2019
Жанр: Фэнтези, триллер, приключения
Выпущено: Дания, Норвегия, Швеция, Исландия, Bulldozer Film, Danmarks Radio (DR), Det Danske Filminstitut, Film i Skåne, Nordisk Film A/S
Режиссер: Фенар Ахмад
В ролях: Роланд Мёллер, Дульфи Аль-Джабури, Сесилия Лоффредо, Саксо Мольтке-Лет, Асбьёрн Крог Ниссен, Стине Фишер Кристенсен, Саломе Гуннарсдоттир, Якоб Ульрик Ломанн, Патриция Шуманн, Андреас Йессен
О фильме: Близится Рагнарек, и великие боги Асгарда собирают последние силы перед битвой. Двое смертных из Мидгарда вместе с Локи и Тором прибывают в небесный чертог накануне сражения. Вот-вот пробудится чудовищный волк Фенрир и древние исполины из Ётунхейма осадят стены Вальгаллы.
Мир обречен. Но можно ли изменить предначертанное?

Качество: BDRip-AVC
Видео: MPEG 4 AVC, 1024x428 (2.40:1), 1410 kbps, 24 fps, 0,134 bpp
Аудио: AC3, 48.0 kHz, 6 ch, 384 kb/s
Продолжительность: 01:44:56
Перевод: Дублированный [iTunes]
Cубтитры: отсутствуют
Релиз от:

Скриншоты

MediaInfo

Общее
Уникальный идентификатор : 223205507842349708685596871493918942861 (0xA7EBD12F7824745EA451C68F01AC668D)
Полное имя : G:\GF\Valhalla.2019.BDRip.AVC.Rip.by.HardwareMining.R.G.Generalfilm.mkv
Формат : Matroska
Версия формата : Version 4
Размер файла : 1,31 Гбайт
Продолжительность : 1 ч. 44 м.
Общий поток : 1 793 Кбит/сек
Название фильма : BDRip.AVC.Rip.by.HardwareMining.R.G.Generalfilm
Дата кодирования : UTC 2020-05-18 16:54:32
Программа кодирования : mkvmerge v6.8.0 ('Theme for Great Cities') 64bit built on Mar 2 2014 21:34:26
Библиотека кодирования : libebml v1.3.0 + libmatroska v1.4.1
Видео
Идентификатор : 1
Формат : AVC
Формат/Информация : Advanced Video Codec
Профиль формата : High@L4.1
Настройки формата : CABAC / 10 Ref Frames
Параметр CABAC формата : Да
Параметр RefFrames формата : 10 кадров
Идентификатор кодека : V_MPEG4/ISO/AVC
Продолжительность : 1 ч. 44 м.
Битрейт : 1 410 Кбит/сек
Ширина : 1 024 пикселя
Высота : 428 пикселей
Соотношение сторон : 2,40:1
Режим частоты кадров : Постоянный
Частота кадров : 24,000 кадра/сек
Цветовое пространство : YUV
Субдискретизация насыщенности : 4:2:0
Битовая глубина : 8 бит
Тип развёртки : Прогрессивная
Бит/(Пиксели*Кадры) : 0.134
Размер потока : 1,01 Гбайт (77%)
Библиотека кодирования : x264 core 148 r2638 7599210
Настройки программы : cabac=1 / ref=10 / deblock=1:-2:-1 / analyse=0x3:0x113 / me=umh / subme=11 / psy=1 / psy_rd=0.00:0.15 / mixed_ref=1 / me_range=32 / chroma_me=1 / trellis=2 / 8x8dct=1 / cqm=0 / deadzone=21,11 / fast_pskip=0 / chroma_qp_offset=-3 / threads=6 / lookahead_threads=1 / sliced_threads=0 / nr=0 / decimate=0 / interlaced=0 / bluray_compat=0 / constrained_intra=0 / bframes=10 / b_pyramid=2 / b_adapt=2 / b_bias=0 / direct=1 / weightb=1 / open_gop=0 / weightp=2 / keyint=240 / keyint_min=23 / scenecut=40 / intra_refresh=0 / rc_lookahead=40 / rc=2pass / mbtree=0 / bitrate=1410 / ratetol=1.0 / qcomp=0.65 / qpmin=0 / qpmax=69 / qpstep=4 / cplxblur=20.0 / qblur=0.5 / vbv_maxrate=50000 / vbv_bufsize=65500 / nal_hrd=none / filler=0 / ip_ratio=1.40 / pb_ratio=1.30 / aq=1:2.00
Язык : English
Default : Да
Forced : Нет
Duration_Source : General_Duration
Аудио
Идентификатор : 2
Формат : AC-3
Формат/Информация : Audio Coding 3
Коммерческое название : Dolby Digital
Идентификатор кодека : A_AC3
Продолжительность : 1 ч. 44 м.
Вид битрейта : Постоянный
Битрейт : 384 Кбит/сек
Каналы : 6 каналов
Channel layout : L R C LFE Ls Rs
Частота : 48,0 КГц
Частота кадров : 31,250 кадров/сек (1536 SPF)
Метод сжатия : С потерями
Размер потока : 288 Мбайт (21%)
Заголовок : iTunes
Язык : Russian
Service kind : Complete Main
Default : Да
Forced : Да
Duration_Source : General_Duration
Меню #1
00:00:00.000 : de:
00:08:18.625 : de:
00:18:20.583 : de:
00:27:47.500 : de:
00:34:20.750 : de:
00:43:48.333 : de:
00:51:48.208 : de:
00:59:24.167 : de:
01:07:50.875 : de:
01:15:47.333 : de:
01:25:12.833 : de:
01:34:55.042 : de:
Меню #2
00:00:00.000 : de:Chapter 01
00:08:18.625 : de:Chapter 02
00:18:20.583 : de:Chapter 03
00:27:47.500 : de:Chapter 04
00:34:20.750 : de:Chapter 05
00:43:48.333 : de:Chapter 06
00:51:48.208 : de:Chapter 07
00:59:24.166 : de:Chapter 08
01:07:50.875 : de:Chapter 09
01:15:47.333 : de:Chapter 10
01:25:12.833 : de:Chapter 11
01:34:55.041 : de:Chapter 12
[Profile] [PM]
Display posts:    
Reply to topic

Current time is: 27-May 12:11

All times are UTC + 3



You cannot post new topics in this forum
You cannot reply to topics in this forum
You cannot edit your posts in this forum
You cannot delete your posts in this forum
You cannot vote in polls in this forum
You cannot attach files in this forum
You cannot download files in this forum