Супер Пёс и Турбо Кот / StarDog and TurboCat (2019) BDRip 1080p | iTunes

Reply to topic
 
Author Message

Monk ®

Gender: Male

Longevity: 1 year 6 months

Posts: 12010

Location: Казань

Post 20-May-2020 00:56

[Quote]

Супер Пёс и Турбо Кот / StarDog and TurboCat Год выпуска: 2019
Жанр: Мультфильм, фэнтези, комедия, семейный
Выпущено: Великобритания, Brilliant Casting, Head Gear Films, Metrol Technology
Режиссер: Бен Смит
В ролях: Люк Эванс, Ник Фрост, Джемма Артертон, Билл Найи, Чарли Д’Амелио, Морган Кэмбс, Кори Инглиш, Рэйчел, Луиз Миллер, Дэн Расселл, Роберт Дж. Слэйд
О фильме: Запущенный в космос его владельцем ученым в 1969 году, верный пёс Бадди терпит крушение в наши дни в небольшом городке, где питомцы подвергаются облавам ненавидящим животных полицейским Пеком.Отчаянно желая воссоединиться со своим владельцем, Бадди нанимает гениального кота-миллионера Феликса, чтобы помочь ему и это выливается в безумное приключение.Они сталкиваются с кроликом Кэссиди и его организацией по защите прав животных G.U.A.R.D., Бадди и Феликс вынуждены противостоять Пеку и в процессе становятся настоящими героями!
Качество: BDRip 1080p
Видео: MPEG-4 AVC, 9598 Kбит/с, 1920x1040
Аудио: Русский (AC3, 2 ch, 192 Кбит/с), английский (DTS, 6 ch, 768 Кбит/с)
Продолжительность: 01:30:33
Перевод: Дублированный [iTunes]

Скриншоты


MediaInfo

Complete name : StarDog.and.TurboCat.2019.1080p.BluRay.ELEKTRI4KA.UNIONGANG.mkv
Format : Matroska
Format version : Version 4 / Version 2
File size : 6.68 GiB
Duration : 1 h 30 min
Overall bit rate : 10.6 Mb/s
Movie name : .ELEKTRI4KA.UNIONGANG.
Encoded date : UTC 2020-05-18 14:44:14
Writing application : mkvmerge v8.3.0 ('Over the Horizon') 64bit
Writing library : libebml v1.3.1 + libmatroska v1.4.2
Video
ID : 1
Format : AVC
Format/Info : Advanced Video Codec
Format profile : High@L4.1
Format settings, CABAC : Yes
Format settings, Reference frames : 4 frames
Codec ID : V_MPEG4/ISO/AVC
Duration : 1 h 30 min
Bit rate : 9 598 kb/s
Width : 1 920 pixels
Height : 1 040 pixels
Display aspect ratio : 1.85:1
Frame rate mode : Constant
Frame rate : 23.976 (24000/1001) FPS
Color space : YUV
Chroma subsampling : 4:2:0
Bit depth : 8 bits
Scan type : Progressive
Bits/(Pixel*Frame) : 0.200
Stream size : 6.07 GiB (91%)
Title : .ELEKTRI4KA.UNIONGANG.
Writing library : x264 core 159 r2991 1771b55
Encoding settings : cabac=1 / ref=4 / deblock=1:-3:-3 / analyse=0x3:0x113 / me=umh / subme=8 / psy=1 / psy_rd=1.00:0.00 / mixed_ref=1 / me_range=32 / chroma_me=1 / trellis=2 / 8x8dct=1 / cqm=0 / deadzone=21,11 / fast_pskip=1 / chroma_qp_offset=-2 / threads=18 / lookahead_threads=3 / sliced_threads=0 / nr=0 / decimate=1 / interlaced=0 / bluray_compat=0 / constrained_intra=0 / bframes=3 / b_pyramid=2 / b_adapt=2 / b_bias=0 / direct=3 / weightb=1 / open_gop=0 / weightp=2 / keyint=240 / keyint_min=24 / scenecut=40 / intra_refresh=0 / rc_lookahead=50 / rc=2pass / mbtree=1 / bitrate=9598 / ratetol=1.0 / qcomp=0.60 / qpmin=0 / qpmax=69 / qpstep=4 / cplxblur=20.0 / qblur=0.5 / ip_ratio=1.40 / aq=3:0.80
Default : Yes
Forced : No
Audio #1
ID : 2
Format : AC-3
Format/Info : Audio Coding 3
Mode extension : CM (complete main)
Format settings, Endianness : Big
Codec ID : A_AC3
Duration : 1 h 30 min
Bit rate mode : Constant
Bit rate : 192 kb/s
Channel(s) : 2 channels
Channel positions : Front: L R
Sampling rate : 48.0 kHz
Frame rate : 31.250 FPS (1536 spf)
Bit depth : 16 bits
Compression mode : Lossy
Stream size : 124 MiB (2%)
Title : iTunes
Language : Russian
Default : Yes
Forced : No
Audio #2
ID : 3
Format : DTS
Format/Info : Digital Theater Systems
Mode : 16
Format settings, Endianness : Big
Codec ID : A_DTS
Duration : 1 h 30 min
Bit rate mode : Constant
Bit rate : 768 kb/s
Channel(s) : 6 channels
Channel positions : Front: L C R, Side: L R, LFE
Sampling rate : 48.0 kHz
Frame rate : 93.750 FPS (512 spf)
Bit depth : 24 bits
Compression mode : Lossy
Stream size : 497 MiB (7%)
Title : Original
Language : English
Default : No
Forced : No
Menu
00:00:00.000 : en:Chapter 01
00:04:23.096 : en:Chapter 02
00:14:57.814 : en:Chapter 03
00:21:29.914 : en:Chapter 04
00:26:30.798 : en:Chapter 05
00:35:28.126 : en:Chapter 06
00:42:51.068 : en:Chapter 07
00:51:18.492 : en:Chapter 08
00:58:12.614 : en:Chapter 09
01:05:34.722 : en:Chapter 10
01:14:21.457 : en:Chapter 11
01:20:28.073 : en:Chapter 12
[Profile] [PM]
Display posts:    
Reply to topic

Current time is: 27-May 12:13

All times are UTC + 3



You cannot post new topics in this forum
You cannot reply to topics in this forum
You cannot edit your posts in this forum
You cannot delete your posts in this forum
You cannot vote in polls in this forum
You cannot attach files in this forum
You cannot download files in this forum