Папаньки [2 сезон: 1-16 серия из 16] (2020) WEBRip 1080p

Reply to topic
 
Author Message

Monk ®

Gender: Male

Longevity: 1 year 6 months

Posts: 12010

Location: Казань

Post 23-May-2020 00:53

[Quote]

Папаньки Год выпуска: 2020
Жанр: Комедия
Выпущено: Украина, Дизель Студия
Режиссер: Ирина Васильева (II), Александр Кананович
В ролях: Егор Крутоголов, Евгений Гашенко, Евгений Сморигин, Андрей Фединчик, Лилия Ребрик, Демьян Шиян, Ольга Арутюнян, Вероника Лукьяненко, Ольга Лукьяненко, Надежда Кондратовская, Анна Варпаховская, Олег Стальчук, Вячеслав Хостикоев, Александр Ярема, Олег Иваница, Лариса Трояновская, Татьяна Зиновенко, Анатолий Зиновенко, Александр Бережок, Александр Бегма, Мария Мархай
О фильме: Четверо друзей живут в одном дворе столичной многоэтажки. Кроме чисто мужских интересов, их объединяет важная тема – воспитание детей. Один из героев только готовится стать отцом, другой воспитывает 7-летнего сына, а третий – сына и двух дочек разного возраста. Герои безумно любят своих детей, гордятся их успехами и активно вовлечены в их воспитание. Только иногда отцы забывают, что сами уже выросли. И есть у них ещё четвёртый друг – заядлый холостяк и ловелас, который категорически не хочет заводить детей.
Качество: WEBRip 1080p
Видео: MPEG-4 AVC, ~ 1992 Кбит/с, 1920x1080, 30 кадр/c
Аудио: AAC, 2 ch, 128 Кбит/с
Продолжительность: 16 х ~ 00:45:00
Перевод: Не требуется

Скриншоты



MediaInfo

General
Complete name : C:\Папаньки-2\01 серия - Танцы (Kinozal-Reliz).mp4
Format : MPEG-4
Format profile : Base Media
Codec ID : isom (isom/iso2/avc1/mp41)
File size : 785 MiB
Duration : 51 min 25 s
Overall bit rate : 2 134 kb/s
Writing application : VideoReDo (Lavf57.71.100)
Video
ID : 1
Format : AVC
Format/Info : Advanced Video Codec
Format profile : High@L4
Format settings : CABAC / 3 Ref Frames
Format settings, CABAC : Yes
Format settings, Reference : 3 frames
Codec ID : avc1
Codec ID/Info : Advanced Video Coding
Duration : 51 min 25 s
Bit rate : 1 992 kb/s
Width : 1 920 pixels
Height : 1 080 pixels
Display aspect ratio : 16:9
Frame rate mode : Constant
Frame rate : 30.000 FPS
Color space : YUV
Chroma subsampling : 4:2:0
Bit depth : 8 bits
Scan type : Progressive
Bits/(Pixel*Frame) : 0.032
Stream size : 733 MiB (93%)
Color range : Limited
Color primaries : BT.709
Transfer characteristics : BT.709
Matrix coefficients : BT.709
Menus : 3
Codec configuration box : avcC
Audio
ID : 2
Format : AAC LC
Format/Info : Advanced Audio Codec Low Complexity
Codec ID : mp4a-40-2
Duration : 51 min 25 s
Bit rate mode : Constant
Bit rate : 128 kb/s
Channel(s) : 2 channels
Channel layout : L R
Sampling rate : 44.1 kHz
Frame rate : 43.066 FPS (1024 SPF)
Compression mode : Lossy
Stream size : 47.1 MiB (6%)
Default : Yes
Alternate group : 1
Menus : 3
Menu #1
ID : 3
Codec ID : txet
Duration : 51 min 25 s
Language : English
Menu For : 1,2
Menu #2
00:00:00.000 : Chapter 1
[Profile] [PM]
Display posts:    
Reply to topic

Current time is: 27-May 11:57

All times are UTC + 3



You cannot post new topics in this forum
You cannot reply to topics in this forum
You cannot edit your posts in this forum
You cannot delete your posts in this forum
You cannot vote in polls in this forum
You cannot attach files in this forum
You cannot download files in this forum