Детский КВН [2 сезон: 1-12 выпуски из 12] (2020) WEB-DLRip Files-x

Reply to topic
 
Author Message

papa1951deda ®

Gender: Male

Longevity: 1 year 7 months

Posts: 640

Location: Казахстан

Post 16-Jun-2020 16:39

[Quote]

Детский КВН Год выпуска: 2020
Жанр: Ток-шоу
Выпущено: Россия, СТС
Ведущие: Михаил Галустян, Юлия Михалкова
О фильме: 15 июня на телеканале СТС стартует показ новой версии шоу «Детский КВН». Наш регион представят сразу две команды — «Антоновка» и «Глубинка». — Для того, чтобы участниками программы, 1500 ребят из 150 команд прошли конкурсный отбор в рамках Международного фестиваля детских команд КВН. Из них были выбраны только 36 коллективов. Среди них представители Москвы, Санкт-Петербурга, Самары, Барнаула, Курска, Волгограда и других городов, — рассказали в мэрии Курска. Отметим, что ведущими программы станут Михаил Галустян и звезда шоу «Лучше всех!» Ева Смирнова. Перед выходом на сцену ребят будет поддерживать актриса Юлия Михалкова.
Качество: WEB-DLRip
Видео: XviD, ~ 1500 Кбит/с, 720x400, 25 кадр/с
Аудио: AC3, 2 ch, 192 Кбит/с
Продолжительность: 12 х ~ 00:47:00
Перевод: Не требуется [Русский]
Cубтитры: нет

Скриншоты


MediaInfo

General
Complete name: H:\шоу\Детский КВН.S02.WEB-DLRip. Files-x\01. Детский КВН.S02.WEB-DLRip. Files-x.avi
Format: AVI
Format/Info: Audio Video Interleave
File size: 636 MiB
Duration: 46mn 47s
Overall bit rate: 1 902 Kbps
Writing application: VirtualDubMod 1.5.10.3 | www.virtualdub-fr.org || (build 2550/release)
Writing library: VirtualDubMod build 2550/release
Video
ID: 0
Format: MPEG-4 Visual
Format profile: Advanced Simple@L5
Format settings, BVOP: 2
Format settings, QPel: No
Format settings, GMC: No warppoints
Format settings, Matrix: Custom
Codec ID: XVID
Codec ID/Hint: XviD
Duration: 46mn 47s
Bit rate: 1 700 Kbps
Width: 720 pixels
Height: 400 pixels
Display aspect ratio: 16:9
Frame rate: 25.000 fps
Color space: YUV
Chroma subsampling: 4:2:0
Bit depth: 8 bits
Scan type: Progressive
Compression mode: Lossy
Bits/(Pixel*Frame): 0.236
Stream size: 569 MiB (89%)
Writing library: XviD 73
Audio
ID: 1
Format: AC-3
Format/Info: Audio Coding 3
Mode extension: CM (complete main)
Codec ID: 2000
Duration: 46mn 47s
Bit rate mode: Constant
Bit rate: 192 Kbps
Channel(s): 2 channels
Channel positions: Front: L R
Sampling rate: 48.0 KHz
Bit depth: 16 bits
Compression mode: Lossy
Stream size: 64.3 MiB (10%)
Alignment: Split accross interleaves
Interleave, duration: 40 ms (1.00 video frame)
Interleave, preload duration: 500 ms

Внимание! Раздача ведётся путём добавления новых серий

Раздача ведётся путём добавления новых серий, при каждом добавлении создаётся новый торрент. Чтобы начать докачку новой серии, пользователям необходимо сделать следующее:
- Остановить скачивание.
- Удалить старый торрент у себя из клиента (старые серии удалять не надо).
- Скачать новый торрент и запустить его у себя в клиенте вместо старого, при этом указать клиенту путь в старую папку куда и должно происходить скачивание новых серий.
Ваш клиент при этом должен произвести хеширование (проверку) старой папки (если не производит сам - помогите ему сделать это), и будет докачивать только те серии которых у вас ещё нет. Старые серии при этом не удаляются, а продолжают раздаваться!
Релиз от:

Release was prepared by RG Files-x

[Profile] [PM]
Display posts:    
Reply to topic

Current time is: 05-Jul 10:42

All times are UTC + 3



You cannot post new topics in this forum
You cannot reply to topics in this forum
You cannot edit your posts in this forum
You cannot delete your posts in this forum
You cannot vote in polls in this forum
You cannot attach files in this forum
You cannot download files in this forum