Парад Победы. Москва. Красная площадь (2020) HDTV 720p

Reply to topic
 
Author Message

bond74 ®

Gender: Male

Longevity: 1 year 7 months

Posts: 802

Post 24-Jun-2020 15:06

[Quote]

Парад Победы. Москва. Красная площадь Год выпуска: 2020
Жанр: Документальный, военный парад
Выпущено: Россия, 1 (HD)
Режиссер: Павел Игнатов
О фильме: Утро праздничного дня, 9 мая, начинается с прямой трансляции Парада, посвящённого 74-й годовщине Победы в Великой Отечественной войне.
Качество: HDTV 720p
Видео: MPEG-4 AVC, 2149 Кбит/с, 1280x720, 25 кадр/с
Аудио: MP2, 2 ch, 192 Кбит/с
Продолжительность: 01:11:24
Перевод: Не требуется
Субтитры: нет

Скриншоты

MediaInfo

eneral
Unique ID : 184936571222285073465092611121546872432 (0x8B217CEFB9E265A7A11EA1FCBF514670)
Complete name : H:\fiiles x\Parad Pobedy. Moskva. Krasnaja ploshhad.2020.HDTVRip 720p.mkv
Format : Matroska
File size : 1.50 GiB
Duration : 1h 39mn
Overall bit rate : 2 149 Kbps
Encoded date : UTC 2020-06-24 11:00:26
Writing application : mkvmerge v7.8.0 ('River Man') 32bit built on Apr 3 2015 12:11:22
Writing library : libebml v1.3.1 + libmatroska v1.4.2
Video
ID : 1
Format : AVC
Format/Info : Advanced Video Codec
Format profile : High@L3.1
Format settings, CABAC : Yes
Format settings, ReFrames : 3 frames
Codec ID : V_MPEG4/ISO/AVC
Duration : 1h 39mn
Bit rate : 1 914 Kbps
Width : 1 280 pixels
Height : 720 pixels
Display aspect ratio : 16:9
Frame rate mode : Variable
Frame rate : 30.000 fps
Color space : YUV
Chroma subsampling : 4:2:0
Bit depth : 8 bits
Scan type : Progressive
Bits/(Pixel*Frame) : 0.069
Stream size : 1.33 GiB (89%)
Color primaries : BT.709-5, BT.1361, IEC 61966-2-4, SMPTE RP177
Transfer characteristics : BT.709-5, BT.1361
Matrix coefficients : BT.709-5, BT.1361, IEC 61966-2-4 709, SMPTE RP177
Audio
ID : 2
Format : AC-3
Format/Info : Audio Coding 3
Mode extension : CM (complete main)
Codec ID : A_AC3
Duration : 1h 39mn
Bit rate mode : Constant
Bit rate : 192 Kbps
Channel(s) : 2 channels
Channel positions : Front: L R
Sampling rate : 44.1 KHz
Bit depth : 16 bits
Compression mode : Lossy
Delay relative to video : 9ms
Stream size : 137 MiB (9%)
[Profile] [PM]
Display posts:    
Reply to topic

Current time is: 05-Jul 10:49

All times are UTC + 3



You cannot post new topics in this forum
You cannot reply to topics in this forum
You cannot edit your posts in this forum
You cannot delete your posts in this forum
You cannot vote in polls in this forum
You cannot attach files in this forum
You cannot download files in this forum