Тролли. Мировой тур / Trolls World Tour (2020) BDRip-AVC [Dub] от R.G.Generalfilm | iTunes

Reply to topic
 
Author Message

HardwareMining ®

Gender: Male

Longevity: 8 months 21 day

Posts: 18

Post 27-Jun-2020 15:16

[Quote]

Тролли. Мировой тур / Trolls World TourСчастье будет всем! Год выпуска: 2020
Жанр: мультфильм, мюзикл, фэнтези
Выпущено: США
Режиссер: Уолт Дорн, Дэвид П. Смит
В ролях: Джастин Тимберлейк (Branch, озвучка), Анна Кендрик (Poppy, озвучка), Рэйчел Блум (Barb, озвучка), Джеймс Корден (Biggie, озвучка), Рон Фанчес (Cooper, озвучка), Келли Кларксон (Delta Dawn, озвучка), Андерсон Паак (Prince D, озвучка), Сэм Рокуэлл (Hickory, озвучка), Джордж Клинтон (King Quincy, озвучка), Мэри Джей Блайдж (Queen Essence, озвучка), Кенан Томпсон (Tiny Diamond, озвучка), Кунал Нэйэр (Guy Diamond, озвучка)
О фильме: Поп-тролли в шоке – оказывается, мир музыки гораздо больше, чем они думали. Рейвы, оупен-эйры, классические концерты и, конечно, хип-хоп баттлы – впереди их ждет головокружительное веселье. Но неудержимая королева Рокс планирует уничтожить всё, чтобы миром безоговорочно правил хард-рок! Розочка, Цветан и их новые друзья отправляются в невероятное путешествие: им предстоит объединить всех троллей и помешать Рокс.
Мировая премьера: 12 марта 2020 (Малайзия)
Премьера (РФ): 19 марта 2020

MPAA: PG - Рекомендуется присутствие родителей
Качество: BDRip-AVC
Видео: AVC, 1024x436 (2.35:1), 1523 kbps, 23,976 fps, 0,142 bpp
Аудио: 48 kHz, AC3 Dolby Digital, 3/2 (L,C,R,l,r) + LFE ch, 384 kbps
Продолжительность: 01:30:43
Перевод / Озвучка: Дублированный [iTunes]
Субтитры: нет

Скриншоты

MediaInfo

General
Unique ID : 240402221603382124028764181682268017289 (0xB4DBC8A26B425409950A64A90DE21289)
Complete name : G:\GF\Trolls.World.Tour.2020.BDRip.AVC.Rip.by.HardwareMining.R.G.Generalfilm.mkv
Format : Matroska
Format version : Version 4 / Version 2
File size : 1.21 GiB
Duration : 1 h 30 min
Overall bit rate : 1 909 kb/s
Movie name : Rip.by.HardwareMining.R.G.Generalfilm
Encoded date : UTC 2020-06-27 11:52:24
Writing application : mkvmerge v6.8.0 ('Theme for Great Cities') 64bit built on Mar 2 2014 21:34:26
Writing library : libebml v1.3.0 + libmatroska v1.4.1
Video
ID : 1
Format : AVC
Format/Info : Advanced Video Codec
Format profile : High@L4.1
Format settings, CABAC : Yes
Format settings, ReFrames : 10 frames
Codec ID : V_MPEG4/ISO/AVC
Duration : 1 h 30 min
Bit rate : 1 523 kb/s
Width : 1 024 pixels
Height : 436 pixels
Display aspect ratio : 2.35:1
Frame rate mode : Constant
Frame rate : 23.976 (24000/1001) FPS
Color space : YUV
Chroma subsampling : 4:2:0
Bit depth : 8 bits
Scan type : Progressive
Bits/(Pixel*Frame) : 0.142
Stream size : 965 MiB (78%)
Writing library : x264 core 148 r2638 7599210
Encoding settings : cabac=1 / ref=10 / deblock=1:-2:-1 / analyse=0x3:0x113 / me=umh / subme=11 / psy=1 / psy_rd=0.00:0.15 / mixed_ref=1 / me_range=32 / chroma_me=1 / trellis=2 / 8x8dct=1 / cqm=0 / deadzone=21,11 / fast_pskip=0 / chroma_qp_offset=-3 / threads=6 / lookahead_threads=1 / sliced_threads=0 / nr=0 / decimate=0 / interlaced=0 / bluray_compat=0 / constrained_intra=0 / bframes=10 / b_pyramid=2 / b_adapt=2 / b_bias=0 / direct=1 / weightb=1 / open_gop=0 / weightp=2 / keyint=240 / keyint_min=23 / scenecut=40 / intra_refresh=0 / rc_lookahead=40 / rc=2pass / mbtree=0 / bitrate=1523 / ratetol=1.0 / qcomp=0.65 / qpmin=0 / qpmax=69 / qpstep=4 / cplxblur=20.0 / qblur=0.5 / vbv_maxrate=50000 / vbv_bufsize=65500 / nal_hrd=none / filler=0 / ip_ratio=1.40 / pb_ratio=1.30 / aq=1:2.00
Language : English
Default : Yes
Forced : No
Audio
ID : 2
Format : AC-3
Format/Info : Audio Coding 3
Mode extension : CM (complete main)
Format settings, Endianness : Big
Codec ID : A_AC3
Duration : 1 h 30 min
Bit rate mode : Constant
Bit rate : 384 kb/s
Channel(s) : 6 channels
Channel positions : Front: L C R, Side: L R, LFE
Sampling rate : 48.0 kHz
Frame rate : 31.250 FPS (1536 spf)
Compression mode : Lossy
Stream size : 249 MiB (20%)
Title : iTunes
Language : Russian
Default : Yes
Forced : No
Релиз от:
[Profile] [PM]
Display posts:    
Reply to topic

Current time is: 05-Jul 21:59

All times are UTC + 3



You cannot post new topics in this forum
You cannot reply to topics in this forum
You cannot edit your posts in this forum
You cannot delete your posts in this forum
You cannot vote in polls in this forum
You cannot attach files in this forum
You cannot download files in this forum