Зёма [1-2 сезоны: 1-16 серий из 16] (2016-2017) WEB-DLRip от GeneralFilm

Reply to topic
 
Author Message

vsobbol ®

Gender: Male

Longevity: 1 year 7 months

Posts: 606

Location: Донецк

Post 29-Jun-2020 06:37

[Quote]

Зёма
Год выпуска: 2017
Жанр: Криминал, комедия
Выпущено: Россия, "ПЕНЗФИЛЬММАШ"
Режиссер: Семён Молоканов, Антон Просвирнин, Алексей Смирнов
В ролях: Семён Молоканов, Мила Сайфутдинова, Артём Бординов, Денис Сундуков, Николай Корчагин, Павел Тачков, Олег Тифанов, Алексей Панин
О фильме: На вечеринке Мила не может найти своего молодого человека. Неожиданно она встречает его в туалете – целующимся с другим парнем. Расстроенная девушка уезжает на такси, где знакомится с дворовым пацаном Зёмой. Но как бедный и необразованный парнишка сможет покорить красавицу из золотой молодежи? Получится ли у него измениться ради любви?

Качество: WEB-DLRip
Видео: XviD build 73, 720x320, 720х304 (2,35:1), 25.000 fps, ~ 1450 Kbps (~ 0.252 bit/pixel)
Аудио: 48.0 kHz, MP3, 2/0 ch, 192 kbps
Продолжительность: 16 x ~ 00:15:00
Перевод: Не требуется [Русский]
Cубтитры: нет

Скриншоты

MediaInfo

General
Complete name : D:\Razdachi\Zema.WEB-DLRip.GeneralFilm\S01.E01.Zema.avi
Format : AVI
Format/Info : Audio Video Interleave
File size : 112 MiB
Duration : 9 min 30 s
Overall bit rate : 1 651 kb/s
Writing application : VirtualDubMod 1.5.10.3 | www.virtualdub-fr.org || (build 2550/release)
Writing library : VirtualDubMod build 2550/release
Video
ID : 0
Format : MPEG-4 Visual
Format profile : Advanced Simple@L5
Format settings : BVOP1 / Custom Matrix
Format settings, BVOP : 1
Format settings, QPel : No
Format settings, GMC : No warppoints
Format settings, Matrix : Custom
Codec ID : XVID
Codec ID/Hint : XviD
Duration : 9 min 30 s
Bit rate : 1 450 kb/s
Width : 720 pixels
Height : 320 pixels
Display aspect ratio : 2.25:1
Frame rate : 25.000 FPS
Color space : YUV
Chroma subsampling : 4:2:0
Bit depth : 8 bits
Scan type : Progressive
Compression mode : Lossy
Bits/(Pixel*Frame) : 0.252
Stream size : 98.6 MiB (88%)
Writing library : XviD 73
Audio
ID : 1
Format : MPEG Audio
Format version : Version 1
Format profile : Layer 3
Codec ID : 55
Codec ID/Hint : MP3
Duration : 9 min 30 s
Bit rate mode : Constant
Bit rate : 192 kb/s
Channel(s) : 2 channels
Sampling rate : 48.0 kHz
Frame rate : 41.667 FPS (1152 SPF)
Compression mode : Lossy
Stream size : 13.1 MiB (12%)
Alignment : Aligned on interleaves
Interleave, duration : 40 ms (1.00 video frame)
Interleave, preload duratio : 504 ms
Writing library : LAME3.99r
Encoding settings : -m s -V 4 -q 2 -lowpass 18.6 -b 192
Релиз от:
[Profile] [PM]
Display posts:    
Reply to topic

Current time is: 05-Jul 10:20

All times are UTC + 3



You cannot post new topics in this forum
You cannot reply to topics in this forum
You cannot edit your posts in this forum
You cannot delete your posts in this forum
You cannot vote in polls in this forum
You cannot attach files in this forum
You cannot download files in this forum