Бункер / Der Untergang (2004) BDRip-AVC [MVO] от R.G.Generalfilm | R5 | D2Lab

Reply to topic
 
Author Message

HardwareMining ®

Gender: Male

Longevity: 8 months 20 days

Posts: 18

Post 29-Jun-2020 17:54

[Quote]

Бункер / Der UntergangПоследние 10 дней жизни Гитлера Год выпуска: 2004
Жанр: драма, военный, биография
Выпущено: Германия, Австрия, Италия
Режиссер: Оливер Хиршбигель
В ролях: Бруно Ганц (Adolf Hitler), Александра Мария Лара (Traudl Junge), Коринна Харфух (Magda Goebbels), Ульрих Маттес (Joseph Goebbels), Юлиана Кёлер (Eva Braun), Хайно Ферх (Albert Speer), Кристиан Беркель (Prof. Dr. Ernst-Gьnter Schenck), Маттиас Хабих (Prof. Dr. Werner Haase), Томас Кречман (SS-Gruppenfьhrer Hermann Fegelein), Михаэль Мендль (General der Artillerie Helmuth Weidling), Андре Хеннике (SS-Brigadefьhrer Wilhelm Mohnke), Ульрих Нётен (Reichsfьhrer SS Heinrich Himmler)
О фильме: Апрель 1945 года. Советские войска сжимают кольцо вокруг столицы Третьего рейха – Берлина. Перед лицом неминуемого поражения нацистская верхушка ищет спасение в секретном бункере, не желая покидать обезумевшего фюрера. Отвергнув предложения о побеге, Гитлер утверждает, что победа близка. Он приказывает сравнять Германию с землей и обсуждает детали своего самоубийства. Последнее убежище палачей пронизано агонией и страхом. И лишь те, кто выйдут живыми из этого бетонного ада, смогут поведать историю о последних минутах жизни и мрачном падении диктатора и его режима.
Мировая премьера: 8 сентября 2004 (Германия)
Премьера (РФ): 2 июня 2005
Бюджет фильма: € 13 500 000

MPAA: R - Лицам до 17 лет обязательно присутствие взрослого
Качество: BDRip-AVC
Видео: AVC, 1024x576 (16:9), 1950 kbps, 23,976 fps, 0,138 bpp
Аудио №1: русский, AC3, 5.1, 48 kHz, 384 kbps CBR
Аудио №2: русский, AC3, 5.1, 48 kHz, 384 kbps CBR
Продолжительность: 02:35:11
Перевод / Озвучка: Профессиональный многоголосый [R5 | D2Lab]
Субтитры: нет

Скриншоты

MediaInfo

General
Unique ID : 214045697790809646759151276742188701068 (0xA107B3AEAFCE2A889FC4B32A4B2B958C)
Complete name : G:\GF\Der Untergang.2004.BDRip.AVC.Rip.by.HardwareMining.R.G.Generalfilm.mkv
Format : Matroska
Format version : Version 4 / Version 2
File size : 2.95 GiB
Duration : 2 h 35 min
Overall bit rate : 2 719 kb/s
Movie name : Rip.by.HardwareMining.R.G.Generalfilm
Encoded date : UTC 2020-06-29 13:33:39
Writing application : mkvmerge v6.8.0 ('Theme for Great Cities') 64bit built on Mar 2 2014 21:34:26
Writing library : libebml v1.3.0 + libmatroska v1.4.1
Video
ID : 3
Format : AVC
Format/Info : Advanced Video Codec
Format profile : High@L4.1
Format settings, CABAC : Yes
Format settings, ReFrames : 10 frames
Codec ID : V_MPEG4/ISO/AVC
Duration : 2 h 35 min
Bit rate : 1 950 kb/s
Width : 1 024 pixels
Height : 576 pixels
Display aspect ratio : 16:9
Frame rate mode : Constant
Frame rate : 23.976 (24000/1001) FPS
Color space : YUV
Chroma subsampling : 4:2:0
Bit depth : 8 bits
Scan type : Progressive
Bits/(Pixel*Frame) : 0.138
Stream size : 2.06 GiB (70%)
Writing library : x264 core 148 r2638 7599210
Encoding settings : cabac=1 / ref=10 / deblock=1:-2:-1 / analyse=0x3:0x113 / me=umh / subme=11 / psy=1 / psy_rd=0.00:0.15 / mixed_ref=1 / me_range=32 / chroma_me=1 / trellis=2 / 8x8dct=1 / cqm=0 / deadzone=21,11 / fast_pskip=0 / chroma_qp_offset=-3 / threads=6 / lookahead_threads=1 / sliced_threads=0 / nr=0 / decimate=0 / interlaced=0 / bluray_compat=0 / constrained_intra=0 / bframes=10 / b_pyramid=2 / b_adapt=2 / b_bias=0 / direct=1 / weightb=1 / open_gop=0 / weightp=2 / keyint=240 / keyint_min=23 / scenecut=40 / intra_refresh=0 / rc_lookahead=40 / rc=2pass / mbtree=0 / bitrate=1950 / ratetol=1.0 / qcomp=0.65 / qpmin=0 / qpmax=69 / qpstep=4 / cplxblur=20.0 / qblur=0.5 / vbv_maxrate=50000 / vbv_bufsize=65500 / nal_hrd=none / filler=0 / ip_ratio=1.40 / pb_ratio=1.30 / aq=1:2.00
Language : English
Default : Yes
Forced : No
Audio #1
ID : 1
Format : AC-3
Format/Info : Audio Coding 3
Mode extension : CM (complete main)
Format settings, Endianness : Big
Codec ID : A_AC3
Duration : 2 h 35 min
Bit rate mode : Constant
Bit rate : 384 kb/s
Channel(s) : 6 channels
Channel positions : Front: L C R, Side: L R, LFE
Sampling rate : 48.0 kHz
Frame rate : 31.250 FPS (1536 spf)
Compression mode : Lossy
Stream size : 426 MiB (14%)
Title : MVO, R5
Language : Russian
Default : Yes
Forced : No
Audio #2
ID : 2
Format : AC-3
Format/Info : Audio Coding 3
Mode extension : CM (complete main)
Format settings, Endianness : Big
Codec ID : A_AC3
Duration : 2 h 35 min
Bit rate mode : Constant
Bit rate : 384 kb/s
Channel(s) : 6 channels
Channel positions : Front: L C R, Side: L R, LFE
Sampling rate : 48.0 kHz
Frame rate : 31.250 FPS (1536 spf)
Compression mode : Lossy
Stream size : 426 MiB (14%)
Title : MVO, D2Lab
Language : Russian
Default : No
Forced : No
Menu #1
00:00:00.000 : en:00:00:00.000
00:07:45.757 : en:00:07:45.757
00:18:40.619 : en:00:18:40.619
00:29:54.376 : en:00:29:54.376
00:39:50.722 : en:00:39:50.722
00:50:09.089 : en:00:50:09.089
00:59:08.754 : en:00:59:08.754
01:07:43.309 : en:01:07:43.309
01:17:00.157 : en:01:17:00.157
01:27:02.050 : en:01:27:02.050
01:38:44.752 : en:01:38:44.752
Menu #2
00:00:00.000 : :00:00:00.000
00:10:00.599 : :00:10:00.599
00:18:24.103 : :00:18:24.103
00:27:01.619 : :00:27:01.619
00:32:08.927 : :00:32:08.927
00:42:31.549 : :00:42:31.549
00:56:33.390 : :00:56:33.390
01:20:30.826 : :01:20:30.826
01:42:57.171 : :01:42:57.171
02:17:44.256 : :02:17:44.256

Знаете ли Вы, что...

  • Фильм снят по мотивам книги Иоахима Феста «Падение. Гитлер и крах Третьего рейха» (Der Untergang. Hitler und das Ende des Dritten Reiches, 2002).
  • Съемки велись в Санкт-Петербурге при участии киностудии Ленфильм. Объясняется это тем, что в России съемочный процесс стоит дешевле, чем в Европе, и осталось много домов начала XX века.
  • Бруно Ганц довольно долго отказывался от роли Адольфа Гитлера, но изменил своё мнение после просмотра картины «Последний акт» 1955 года, решив, что и в этот образ можно привнести достаточную глубину.
  • В киноленте приняла участие реальная Траудль Юнге, секретарь Адольфа Гитлера, мемуары которой задокументировала писательница Мелисса Мюллер. Траудль скончалась в возрасте 81 года за несколько часов до премьеры фильма на Берлинском МКФ.
  • Бруно Ганц практиковался в произношении необычного акцента Адольфа Гитлера с помощью специально приглашённого молодого актёра из той же местности, откуда Гитлер был родом.
  • Для того чтобы лучше подготовиться к своей роли, Бруно Ганц провёл некоторое время в швейцарском госпитале, наблюдая за больными болезнью Паркинсона.
  • Среди 37 исторических личностей, ставших персонажами фильма, к моменту премьеры фильма в живых оставался лишь один человек, Рохус Миш, который был курьером, телохранителем и телефонным оператором Адольфа Гитлера на протяжении 1940-1945 годов. На сентябрь 2008 года он в возрасте 91 года (родился 29 июля 1917 года) вместе с курьером Армином Леманом (родился 23 мая 1928 года) оставался одним из двух последних живых обитателей бункера Гитлера.
  • Многие из фраз Адольфа Гитлера в фильме соответствуют действительности, однако, произносились в более ранний период.
  • В одной из сцен фильма можно заметить, что Магда Геббельс пишет письмо своему сыну от первого брака Харальду Куандту и перед ней стоит его фотография. Он был пилотом Люфтваффе и единственным из детей Магды Геббельс, кто пережил войну. В 1944 году он был ранен в Италии и попал в плен к войскам союзников, в 1947 году был отпущен на свободу и в 1967 году погиб в авиакатастрофе в возрасте 46 лет.
  • Пуговица, которую Гитлер удаляет со своего пиджака и передаёт Магде Геббельс, это золотой значок нацистской партии, которым награждались её высокопоставленные члены, непрерывно числившиеся в ней с 1925 года. Значком с номером 1 Гитлер наградил самого себя.
  • Портрет, на который Гитлер долго смотрит в одной из сцен, принадлежит немецкому императору Фридриху Великому.
  • Одна из сцен в фильме, в которой Гитлер пускается в бешеную тираду о том, что война проиграна, стала основой для многих вирусных видео. Во многих роликах сохранены оригинальные реплики, но добавлены новые субтитры так, чтобы казалось, что фюрер в фильме реагировал на разные события уже в современном мире: в политике, спорте или науке. Популярность этих пародий дошла до того, что студия Constantin Film в апреле 2010 года сделала попытку массового удаления пародий с различных видеохостингов. Более того, в 2012 году одна из сцен фантастической комедии «Железное небо» (2012) практически кадр в кадр воспроизводит сцену с фюрером, как еще одну пародию.
Релиз от:
[Profile] [PM]
Display posts:    
Reply to topic

Current time is: 05-Jul 10:57

All times are UTC + 3



You cannot post new topics in this forum
You cannot reply to topics in this forum
You cannot edit your posts in this forum
You cannot delete your posts in this forum
You cannot vote in polls in this forum
You cannot attach files in this forum
You cannot download files in this forum