Реалити-шоу / El reality (2018) WEB-DLRip | Синема УС

Reply to topic
 
Author Message

Monk ®

Gender: Male

Longevity: 1 year 7 months

Posts: 12375

Location: Казань

Post 30-Jun-2020 00:12

[Quote]

Реалити-шоу / El reality Год выпуска: 2018
Жанр: Комедия
Выпущено: Колумбия
Режиссер: Родриго Триана
В ролях: Вероника Ороско, Алехандро Гонсалес, Луис Эдуардо Аранго, Хорхе Энрике Абельо, Кевин Бери, Хосе Дэниэл Кристианчо, Лаура де Леон, Эдуардо Лопес, Диего Монрой, Иоланда Рэйо
О фильме: Камило Мальярино - молодой колумбиец из богатой семьи, мечтающий петь на сцене народные песни. Ему выпадает шанс показать свой талант в реалити-шоу, но, оказывается, для победы одного таланта мало. Он решает притвориться слепым и бедным в надежде вызвать сострадание у жюри. Чтобы план сработал, он находит себе фальшивую семью, члены которой за деньги готовы поддерживать его легенду и жить с ним под одной крышей.
Качество: WEB-DLRip
Видео: XviD, 1784 Кбит/с, 720x304
Аудио: Русский, испанский (AC3, 2 ch, 192 Кбит/с)
Продолжительность: 01:44:35
Перевод: Любительский многоголосый [Синема УС]
Субтитры: Русские (форс.), испанские

Скриншоты


MediaInfo

General
Complete name : El Reality_2018_by_maksciganov.RU.avi
Format : AVI
Format/Info : Audio Video Interleave
File size : 1.45 GiB
Duration : 1h 44mn
Overall bit rate : 1 986 Kbps
Writing application : VirtualDubMod 1.5.10.3 | www.virtualdub-fr.org || (build 2550/release)
Writing library : VirtualDubMod build 2550/release
Video
ID : 0
Format : MPEG-4 Visual
Format profile : Advanced Simple@L5
Format settings, BVOP : 1
Format settings, QPel : No
Format settings, GMC : No warppoints
Format settings, Matrix : Default (MPEG)
Codec ID : XVID
Codec ID/Hint : XviD
Duration : 1h 44mn
Bit rate : 1 784 Kbps
Width : 720 pixels
Height : 304 pixels
Display aspect ratio : 2.35:1
Frame rate : 23.976 fps
Color space : YUV
Chroma subsampling : 4:2:0
Bit depth : 8 bits
Scan type : Progressive
Compression mode : Lossy
Bits/(Pixel*Frame) : 0.340
Stream size : 1.30 GiB (90%)
Writing library : XviD 1.2.1 (UTC 2008-12-04)
Audio
ID : 1
Format : AC-3
Format/Info : Audio Coding 3
Mode extension : CM (complete main)
Codec ID : 2000
Duration : 1h 44mn
Bit rate mode : Constant
Bit rate : 192 Kbps
Channel(s) : 2 channels
Channel positions : Front: L R
Sampling rate : 48.0 KHz
Bit depth : 16 bits
Compression mode : Lossy
Stream size : 144 MiB (10%)
Alignment : Split accross interleaves
Interleave, duration : 42 ms (1.00 video frame)
Interleave, preload duration : 500 ms
[Profile] [PM]
Display posts:    
Reply to topic

Current time is: 05-Jul 23:33

All times are UTC + 3



You cannot post new topics in this forum
You cannot reply to topics in this forum
You cannot edit your posts in this forum
You cannot delete your posts in this forum
You cannot vote in polls in this forum
You cannot attach files in this forum
You cannot download files in this forum