Торжественный парад ко Дню Военно-морского флота РФ [Санкт-Петербург] (2020) WEBRip 1080p

Reply to topic
 
Author Message

papa1951deda ®

Gender: Male

Longevity: 1 year 10 months

Posts: 700

Location: Казахстан

Post 27-Jul-2020 15:17

[Quote]

Торжественный парад ко Дню Военно-морского флота РФ [Санкт-Петербург] Год выпуска: 2020
Жанр: Документальный, военный
Выпущено: Россия, канал Russia Today
О фильме: В Санкт-Петербурге состоялся Главный военно-морской парад в честь Дня ВМФ. Торжества традиционно прошли в последнее воскресенье июля. В 2018 году в главном военно-морском смотре в акватории Невы и на Кронштадтском рейде приняли участие более 40 кораблей и катеров различных классов, а также группа морской авиации. Перед началом смотра парадную линию боевых кораблей обошёл на катере президент России Владимир Путин, приветствуя экипажи кораблей. В своём обращении к собравшимся глава государства поздравил моряков, ветеранов и всех россиян с Днём Военно-морского флота. В парадном строю по Неве мимо стрелки Васильевского острова, Петропавловской крепости, Адмиралтейской и Дворцовой набережных прошли 27 боевых кораблей, ещё 14 судов приняли участие в параде на Кронштадтском рейде. В торжественном смотре были задействованы более 4000 моряков Балтийского, Черноморского и Северного флота, а также Каспийской флотилии. В честь праздника на стрелке Васильевского острова зажгли Ростральные колонны, а над зданием Адмиралтейства был поднят кормовой Георгиевский флаг линейного корабля «Азов» — историческая реликвия российского флота
Качество: WEBRip 1080p
Видео: MPEG-4 AVC, 3400 Кбит/с, 1920x1080, 30 кадр/с
Аудио: AC3, 2 ch, 192 Кбит/с
Продолжительность: 01:27:45
Перевод: Не требуется [Русский]
Cубтитры: нет

Скриншоты


MediaInfo

General
Unique ID : 198210139181087517517116300323510379909 (0x951DE25D1810D80E97034A89532D6585)
Complete name : D:\моё видио\Парад в честь Дня Военно-морского флота. 2020. WEB-DL 1080p.mkv
Format : Matroska
Format version : Version 2
File size : 1.83 GiB
Duration : 1h 13mn
Overall bit rate : 3 593 Kbps
Encoded date : UTC 2020-07-26 09:57:17
Writing application : mkvmerge v7.8.0 ('River Man') 32bit built on Apr 3 2015 12:11:22
Writing library : libebml v1.3.1 + libmatroska v1.4.2
Video
ID : 1
Format : AVC
Format/Info : Advanced Video Codec
Format profile : High@L4.0
Format settings, CABAC : Yes
Format settings, ReFrames : 1 frame
Codec ID : V_MPEG4/ISO/AVC
Duration : 1h 13mn
Bit rate : 3 330 Kbps
Width : 1 920 pixels
Height : 1 080 pixels
Display aspect ratio : 16:9
Frame rate mode : Constant
Frame rate : 30.000 fps
Color space : YUV
Chroma subsampling : 4:2:0
Bit depth : 8 bits
Scan type : Progressive
Bits/(Pixel*Frame) : 0.054
Stream size : 1.70 GiB (93%)
Default : Yes
Forced : No
Color primaries : BT.709
Transfer characteristics : BT.709
Matrix coefficients : BT.709
Audio
ID : 2
Format : AC-3
Format/Info : Audio Coding 3
Mode extension : CM (complete main)
Format settings, Endianness : Big
Codec ID : A_AC3
Duration : 1h 13mn
Bit rate mode : Constant
Bit rate : 192 Kbps
Channel(s) : 2 channels
Channel positions : Front: L R
Sampling rate : 48.0 KHz
Bit depth : 16 bits
Compression mode : Lossy
Stream size : 100 MiB (5%)
Default : Yes
Forced : No
[Profile] [PM]
Display posts:    
Reply to topic

Current time is: 27-Sep 02:42

All times are UTC + 3



You cannot post new topics in this forum
You cannot reply to topics in this forum
You cannot edit your posts in this forum
You cannot delete your posts in this forum
You cannot vote in polls in this forum
You cannot attach files in this forum
You cannot download files in this forum