Урфин Джюс возвращается (2019) WEB-DLRip от GeneralFilm | iTunes

Reply to topic
 
Author Message

vsobbol ®

Gender: Male

Longevity: 2 years

Posts: 755

Location: Донецк

Post 07-Aug-2020 06:22

[Quote]

Урфин Джюс возвращается
Год выпуска: 2019
Жанр: Мультфильм
Выпущено: Россия, «Кинокомпания CTB», Анимационная студия «Мельница»
Режиссер: Федор Дмитриев
В ролях: Константин Хабенский, Екатерина Гороховская, Александр Быковский, Дмитрий Высоцкий (II), Дмитрий Дюжев, Андрей Лёвин, Юлия Рудина, Мария Цветкова-Овсянникова, Максим Сергеев, Валерий Соловьёв
О фильме: Элли и ее верный пес Тотошка снова оказываются в Волшебной стране в самое подходящее время. Власть в Изумрудном городе опять пытается захватить коварный Урфин Джюс, который хоть и потерял армию деревянных солдат, но не отказался от своей вредной привычки - портить всем жизнь. В руках Урфина теперь волшебная книга колдуньи Гингемы, которая исполняет любое желание ее хозяина, а значит, Страшила Мудрый, Храбрый Лев и Железный Дровосек в опасности. Элли, Тотошка и их новый приятель Тим решают помочь жителям Волшебной страны. Тем более, Тиму нравится Элли, а что не сделаешь ради любви? Например, глупость. Но ошибки совершает каждый, а вот исправлять их умеют немногие.Любить их всех.

Качество: WEB-DLRip
Видео: XviD build 73, 720x304 (2.35:1), 25.000 fps, 1219 Kbps (0.223 bit/pixel)
Аудио: 48.0 kHz, MP3, 2/0 ch, 192 kbps
Продолжительность: 01:13:18
Перевод: Не требуется [Русский] | iTunes
Cубтитры: нет

Скриншоты

MediaInfo

General
Complete name : D:\Razdachi\Urfin.Dzhyus.Vozvrashaetsya.2019.WEB-DLRip.GeneralFilm.avi
Format : AVI
Format/Info : Audio Video Interleave
File size : 745 MiB
Duration : 1 h 13 min
Overall bit rate : 1 421 kb/s
Writing application : VirtualDubMod 1.5.10.3 | www.virtualdub-fr.org || (build 2550/release)
Writing library : VirtualDubMod build 2550/release
Video
ID : 0
Format : MPEG-4 Visual
Format profile : Advanced Simple@L5
Format settings : BVOP1 / Custom Matrix
Format settings, BVOP : 1
Format settings, QPel : No
Format settings, GMC : No warppoints
Format settings, Matrix : Custom
Codec ID : XVID
Codec ID/Hint : XviD
Duration : 1 h 13 min
Bit rate : 1 219 kb/s
Width : 720 pixels
Height : 304 pixels
Display aspect ratio : 2.35:1
Frame rate : 25.000 FPS
Color space : YUV
Chroma subsampling : 4:2:0
Bit depth : 8 bits
Scan type : Progressive
Compression mode : Lossy
Bits/(Pixel*Frame) : 0.223
Stream size : 639 MiB (86%)
Writing library : XviD 73
Audio
ID : 1
Format : MPEG Audio
Format version : Version 1
Format profile : Layer 3
Codec ID : 55
Codec ID/Hint : MP3
Duration : 1 h 13 min
Bit rate mode : Constant
Bit rate : 192 kb/s
Channel(s) : 2 channels
Sampling rate : 48.0 kHz
Frame rate : 41.667 FPS (1152 SPF)
Compression mode : Lossy
Stream size : 101 MiB (14%)
Alignment : Aligned on interleaves
Interleave, duration : 40 ms (1.00 video frame)
Interleave, preload duratio : 504 ms
Writing library : LAME3.99r
Encoding settings : -m s -V 4 -q 2 -lowpass 18.6 -b 192
Релиз от:
[Profile] [PM]
Display posts:    
Reply to topic

Current time is: 04-Dec 11:33

All times are UTC + 3



You cannot post new topics in this forum
You cannot reply to topics in this forum
You cannot edit your posts in this forum
You cannot delete your posts in this forum
You cannot vote in polls in this forum
You cannot attach files in this forum
You cannot download files in this forum