Том-коротыш и волшебное зеркало / Meñique y el espejo mágico / Tom Little and the magic mirror (2014) WEB-DLRip [Dub] от GeneralFilm

Reply to topic
 
Author Message

vsobbol ®

Gender: Male

Longevity: 2 years

Posts: 755

Location: Донецк

Post 23-Aug-2020 10:35

[Quote]

Том-коротыш и волшебное зеркало / Meñique y el espejo mágico / Tom Little and the magic mirror
Год выпуска: 2014
Жанр: Мультфильм, приключения
Выпущено: Куба, Испания, ICAIC, Ficcion Producciones, TVG
Режиссер: Эрнесто Падрон
В ролях: Карлос Бланко, Монти Кастиньейрас, Мария Кастро, Луис Иглесиас, Керемджем, Мария Пухальте, Хавьер Рей
О фильме: Том-коротыш, несмотря на свой невысокий рост и не очень крепкое телосложение, решает освободить королевский дворец от проклятия. В зачарованном лесу куда важнее смекалка и храбрость. Но кто окажется его истинной любовью — красивая принцесса или отважная разбойница?

Качество: WEB-DLRip
Видео: XviD build 73, 720x384 (1.85:1), 25.000 fps, 1185 Kbps (0.171 bit/pixel)
Аудио: 48.0 kHz, MP3, 2/0 ch, 192 kbps
Продолжительность: 01:15:05
Перевод / Озвучка: Дублированный
Cубтитры: нет

Скриншоты

MediaInfo

General
Complete name : D:\Razdachi\Tom-Korotysh.2014.WEB-DLRip.GeneralFilm.avi
Format : AVI
Format/Info : Audio Video Interleave
File size : 745 MiB
Duration : 1 h 15 min
Overall bit rate : 1 387 kb/s
Writing application : VirtualDubMod 1.5.10.3 | www.virtualdub-fr.org || (build 2550/release)
Writing library : VirtualDubMod build 2550/release
Video
ID : 0
Format : MPEG-4 Visual
Format profile : Advanced Simple@L5
Format settings : BVOP1 / Custom Matrix
Format settings, BVOP : 1
Format settings, QPel : No
Format settings, GMC : No warppoints
Format settings, Matrix : Custom
Codec ID : XVID
Codec ID/Hint : XviD
Duration : 1 h 15 min
Bit rate : 1 185 kb/s
Width : 720 pixels
Height : 384 pixels
Display aspect ratio : 1.85:1
Frame rate : 25.000 FPS
Color space : YUV
Chroma subsampling : 4:2:0
Bit depth : 8 bits
Scan type : Progressive
Compression mode : Lossy
Bits/(Pixel*Frame) : 0.171
Stream size : 637 MiB (85%)
Writing library : XviD 73
Audio
ID : 1
Format : MPEG Audio
Format version : Version 1
Format profile : Layer 3
Codec ID : 55
Codec ID/Hint : MP3
Duration : 1 h 15 min
Bit rate mode : Constant
Bit rate : 192 kb/s
Channel(s) : 2 channels
Sampling rate : 48.0 kHz
Frame rate : 41.667 FPS (1152 SPF)
Compression mode : Lossy
Stream size : 103 MiB (14%)
Alignment : Aligned on interleaves
Interleave, duration : 40 ms (1.00 video frame)
Interleave, preload duratio : 504 ms
Writing library : LAME3.99r
Encoding settings : -m s -V 4 -q 2 -lowpass 18.6 -b 192
Релиз от:
[Profile] [PM]
Display posts:    
Reply to topic

Current time is: 01-Dec 01:55

All times are UTC + 3



You cannot post new topics in this forum
You cannot reply to topics in this forum
You cannot edit your posts in this forum
You cannot delete your posts in this forum
You cannot vote in polls in this forum
You cannot attach files in this forum
You cannot download files in this forum