Discovery: Золотой путь Паркера Шнабеля / Gold rush Parkers trail [4 сезон: 1-5 серии из 9] (2020) HDTVRip 720р от GeneralFilm

Reply to topic
 
Author Message

Starik60 ®

Gender: Male

Longevity: 2 years

Posts: 279

Location: Москва, Россия

Post 28-Aug-2020 01:14

[Quote]

Золотой путь Паркера Шнабеля / Gold Rush Parkers trail
Год выпуска: 2020
Жанр: Документальный, природа, география, путешествия, приключения, исследование
Выпущено: США, Discovery Channel
Режисёр: Джеймс Левел
О фильме: Покорив опасные тропы Клондайка, беспощадные джунгли Гайаны и дикие просторы Папуа-Новой Гвинеи, Паркер Шнабель готов к завоеванию новых территорий. На Клондайке наступает очередная зима — добыча золота приостановлена, но 25-летний старатель не собирается терять время. Повинуясь своему чутью и изучив сведения из надежных источников, Паркер и его друзья отправляются в Австралию, где добывают огромные самородки, а размеры нетронутых золотых запасов поражают воображение. Наших героев ждут приключения, которые могут навсегда изменить их жизнь и карьеру.

Официальный сайт
Качество: HDTVRip 720p
Видео: MPEG-4 AVC, ~ 4000 Кбит/с, 1280x720
Аудио: MP2, 2 ch, 384 Кбит/с
Продолжительность: 5 x ~ 00:44:00
Перевод: Профессиональный (многоголосый, закадровый)

Скриншоты




MediaImfo


General
Unique ID : 170811343831444108251947400098286366865 (0x8081117511FBC33B9D77C8FFCD137091)
Complete name : G:\Раздачи\Золотой путь S04 720p GeneralFilm\01 Золотой путь by Starik60 GeneralFilm.mkv
Format : Matroska
Format version : Version 4
File size : 1.34 GiB
Duration : 43 min 50 s
Overall bit rate mode : Constant
Overall bit rate : 4 384 kb/s
Encoded date : UTC 2020-08-27 20:37:52
Writing application : mkvmerge v7.8.0 ('River Man') 64bit built on Mar 27 2015 16:31:37
Writing library : libebml v1.3.1 + libmatroska v1.4.2 / Lavf54.63.104
Cover : Yes
Attachments : cover5.jpg
Video
ID : 1
Format : AVC
Format/Info : Advanced Video Codec
Format profile : High@L4.1
Format settings : CABAC / 3 Ref Frames
Format settings, CABAC : Yes
Format settings, Reference : 3 frames
Codec ID : V_MPEG4/ISO/AVC
Duration : 43 min 50 s
Bit rate mode : Constant
Bit rate : 4 000 kb/s
Width : 1 280 pixels
Height : 720 pixels
Display aspect ratio : 16:9
Frame rate mode : Constant
Frame rate : 50.000 FPS
Standard : PAL
Color space : YUV
Chroma subsampling : 4:2:0
Bit depth : 8 bits
Scan type : Progressive
Bits/(Pixel*Frame) : 0.087
Stream size : 1.22 GiB (91%)
Default : No
Forced : No
Color range : Limited
Color primaries : BT.709
Transfer characteristics : BT.709
Matrix coefficients : BT.709
Audio
ID : 2
Format : MPEG Audio
Format version : Version 1
Format profile : Layer 2
Codec ID : A_MPEG/L2
Codec ID/Hint : MP2
Duration : 43 min 50 s
Bit rate mode : Constant
Bit rate : 384 kb/s
Channel(s) : 2 channels
Sampling rate : 48.0 kHz
Frame rate : 41.667 FPS (1152 SPF)
Compression mode : Lossy
Delay relative to video : 20 ms
Stream size : 120 MiB (9%)
Language : English
Default : Yes
Forced : No

Название серий


01. Золото аутбэка.
02. Охота за новой землей.
03. Испытательный полигон.
04. Испытание огнем.
05. Доведенный до крайности

Внимание! Раздача ведётся путём добавления новых серий!


Внимание! Раздача ведётся путём добавления новых серий; при каждом добавлении создfётся новый торрент. Чтобы начать докачку новой серии, пользователям необходимо сделать следующее: (1) остановить скачивание, (2) удалить старый торрент у себя из клиента (старые серии удалять не надо), (3) скачать новый торрент и запустить его у себя в клиенте вместо старого, при этом указать клиенту путь в старую папку куда и должно происходить скачивание новых серий.
Ваш клиент при этом должен произвести хеширование (проверку) старой папки (если не производит сам - помогите ему сделать это), и будет докачивать только те серии которых у вас ещё нет. Старые серии при этом не удаляются, а продолжают раздаваться!
Eсли вы уже удалили старые серии, то предотвратить повторную закачку старых серий можно, отжав галочку в соответсвующих местах при запуске нового торрента.
Благодарю за отличный постер ValkiriaGF
Релиз от:
[Profile] [PM]

zubr_ne

Gender: Male

Longevity: 1 year 6 months

Posts: 1

Post 22-Oct-2020 19:42 (after 1 month 25 days)

[Quote]

Коли очікувати продовження?
[Profile] [PM]
Display posts:    
Reply to topic

Current time is: 27-Nov 11:48

All times are UTC + 3



You cannot post new topics in this forum
You cannot reply to topics in this forum
You cannot edit your posts in this forum
You cannot delete your posts in this forum
You cannot vote in polls in this forum
You cannot attach files in this forum
You cannot download files in this forum