Презумпция невиновности [1-6 серии из 16] (2018) WEBRip от GeneralFilm

Reply to topic
 
Author Message

vsobbol ®

Gender: Male

Longevity: 2 years 5 months

Posts: 761

Location: Донецк

Post 01-Sep-2020 02:51

[Quote]

Презумпция невиновности
Год выпуска: 2018
Жанр: Детектив, мелодрама
Выпущено: Россия, Р Медиа
Режиссер: Наталия Бучнева
В ролях: Кирилл Рубцов, Никита Панфилов, Светлана Устинова, Наталия Медведева (IV), Даниил Спиваковский, Наталья Высочанская, Роман Маякин, Алика Смехова, Анна Большова, Ольга Будина, Алёна Хмельницкая, Дмитрий Комов, Ирина Шеянова, Михаил Горевой, Егор Ковалёв, Елена Лядова
О фильме: Главный герой - адвокат Аврутин, циничный, богатый, с хорошим чувством юмора, любящий шокировать и провоцировать. Берется за самые безнадежные дела и всегда их выигрывает. Терпению местных органов следствия приходит конец, когда адвокат выпускает из зала суда убийцу полицейского. Начальник следственного отдела дает указание следователю Глебову собрать компромат на адвоката и дискредитировать его. В этом Глебову соглашается помочь его возлюбленная, скандальная журналистка криминальных новостей Верницкая. Она под предлогом съемок репортажа об Аврутине внедряется в его ближний круг и втайне проводит журналистское расследование. Аврутин вычисляет ее намерения и… влюбляется в нее. А она в него.

Качество: WEBRip
Видео: XviD build 73, 720x400 (16:9), 25.000 fps, ~ 1300 Kbps (~ 0.180 bit/pixel)
Аудио: 48.0 kHz, MP3, 2/0 ch, 192 kbps
Продолжительность: 6 x ~ 00:52:00
Перевод: Не требуется [Русский]
Cубтитры: нет

Скриншоты

MediaInfo

General
Complete name : D:\Razdachi\Prezumptsiya.Nevinovnosti.2020.WEBRip.GeneralFilm\e01.Prezumptsiya.Nevinovnosti.avi
Format : AVI
Format/Info : Audio Video Interleave
File size : 558 MiB
Duration : 51 min 49 s
Overall bit rate : 1 505 kb/s
Writing application : VirtualDubMod 1.5.10.3 | www.virtualdub-fr.org || (build 2550/release)
Writing library : VirtualDubMod build 2550/release
Video
ID : 0
Format : MPEG-4 Visual
Format profile : Advanced Simple@L5
Format settings : BVOP1
Format settings, BVOP : 1
Format settings, QPel : No
Format settings, GMC : No warppoints
Format settings, Matrix : Default (H.263)
Codec ID : XVID
Codec ID/Hint : XviD
Duration : 51 min 49 s
Bit rate : 1 303 kb/s
Width : 720 pixels
Height : 400 pixels
Display aspect ratio : 16:9
Frame rate : 25.000 FPS
Color space : YUV
Chroma subsampling : 4:2:0
Bit depth : 8 bits
Scan type : Progressive
Compression mode : Lossy
Bits/(Pixel*Frame) : 0.181
Stream size : 483 MiB (87%)
Writing library : XviD 73
Audio
ID : 1
Format : MPEG Audio
Format version : Version 1
Format profile : Layer 3
Codec ID : 55
Codec ID/Hint : MP3
Duration : 51 min 49 s
Bit rate mode : Constant
Bit rate : 192 kb/s
Channel(s) : 2 channels
Sampling rate : 48.0 kHz
Frame rate : 41.667 FPS (1152 SPF)
Compression mode : Lossy
Stream size : 71.2 MiB (13%)
Alignment : Aligned on interleaves
Interleave, duration : 40 ms (1.00 video frame)
Interleave, preload duratio : 504 ms
Writing library : LAME3.99r
Encoding settings : -m s -V 4 -q 2 -lowpass 18.6 -b 192

Внимание! Раздача ведётся путём добавления новых серий

Раздача ведётся путём добавления новых серий, при каждом добавлении создаётся новый торрент. Чтобы начать докачку новой серии, пользователям необходимо сделать следующее:
- Остановить скачивание.
- Удалить старый торрент у себя из клиента (старые серии удалять не надо).
- Скачать новый торрент и запустить его у себя в клиенте вместо старого, при этом указать клиенту путь в старую папку куда и должно происходить скачивание новых серий.
Ваш клиент при этом должен произвести хеширование (проверку) старой папки (если не производит сам - помогите ему сделать это), и будет докачивать только те серии которых у вас ещё нет. Старые серии при этом не удаляются, а продолжают раздаваться!
Если вы уже удалили старые серии, то предотвратить повторную закачку старых серий можно, отжав галочку в соответствующих местах при запуске нового торрента. По возможности, желательно не удалять старые серии как можно дольше, чтобы релизер не столько продолжал раздавать старые серии, а смог сконцентрироваться на новых.
Релиз от:
[Profile] [PM]

KRIEVS2011

Gender: Male

Longevity: 2 years 2 months

Posts: 105

Post 30-Jan-2021 07:48 (after 4 months 29 days)

[Quote]

Хороший Фильм
Огромное СПАСИБО !!!
[Profile] [PM]

grafcable

Gender: Male

Longevity: 2 years

Posts: 5

Post 01-Mar-2021 08:53 (after 1 month 2 days)

[Quote]

А когда будет продолжение?
[Profile] [PM]

grafcable

Gender: Male

Longevity: 2 years

Posts: 5

Post 05-Mar-2021 03:13 (after 3 days)

[Quote]

Закончите пожалуйста раздачу!!!
[Profile] [PM]
Display posts:    
Reply to topic

Current time is: 17-Apr 07:32

All times are UTC + 3



You cannot post new topics in this forum
You cannot reply to topics in this forum
You cannot edit your posts in this forum
You cannot delete your posts in this forum
You cannot vote in polls in this forum
You cannot attach files in this forum
You cannot download files in this forum