Агент Ева / Ava (2020) BDRip 1080p [Dub] от R.G.Generalfilm | iTunes

Reply to topic
 
Author Message

White Smoke ®

Gender: Male

Longevity: 1 year 10 months

Posts: 157

Post 12-Sep-2020 17:32

[Quote]

Агент Ева / AvaKill. Or Be Killed.Год выпуска: 2020
Жанр: Боевик, триллер, драма
Выпущено: США Freckle Films, Voltage Pictures
Режиссер: Тейт Тейлор
В ролях: Джессика Честейн (Ava), Джон Малкович (Duke), Джесс Вейкслер (Judy), Коммон (Michael), Джина Дэвис (Bobbi), Колин Фаррелл (Simon), Йоан Гриффит (Peter), Диана Сильверс (Camille), Джоан Чэнь (Toni), Эфка Кваракиюс (Alain), Кристофер Дж. Домиг (Gunther), (Teddy)[/url]
О фильме: Она умна, красива и чрезвычайно опасна. Перемещаясь по миру словно тень, наёмная убийца Ева убирает людей по заданию руководства, но с очередным объектом всё проходит не так гладко. Когда Ева решает наладить отношения с семьёй - сестрой и матерью, которых она не видела 8 лет, - на неё вдруг совершается покушение.
Мировая премьера: 2 июля 2020 (Венгрия)
Премьера (РФ): 20 августа 2020

MPAA: R - Лицам до 17 лет обязательно присутствие взрослого
Качество: BDRip 1080p
Видео: MPEG-4 AVC, 1920x804 (2.40:1), 6200 kbps, 23,976 fps, 0,168 bpp
Аудио: русский, AC3, 5.1, 48 kHz, 384 kbps CBR
Продолжительность: 01:36:49
Перевод : Дублированный [iTunes]
Субтитры: русские (Forced iTunes])

Скриншоты

MediaInfo

General
Unique ID : 203061947330773786279597270484359374775 (0x98C44EF965901A829D349A4F394CE7B7)
Complete name : E:\Запись с тв\Ava.2020.BDRip-1080p.Rip.by.White Smoke.R.G.Generalfilm.mkv
Format : Matroska
Format version : Version 4 / Version 2
File size : 4.45 GiB
Duration : 1 h 36 min
Overall bit rate : 6 581 kb/s
Movie name : Ava.2020.BDRip-1080p.Rip.by.White Smoke.R.G.Generalfilm.mkv
Encoded date : UTC 2020-09-12 13:28:30
Writing application : mkvmerge v6.8.0 ('Theme for Great Cities') 64bit built on Mar 2 2014 21:34:26
Writing library : libebml v1.3.0 + libmatroska v1.4.1
Video
ID : 1
Format : AVC
Format/Info : Advanced Video Codec
Format profile : High@L4.1
Format settings, CABAC : Yes
Format settings, ReFrames : 5 frames
Codec ID : V_MPEG4/ISO/AVC
Duration : 1 h 36 min
Bit rate : 6 200 kb/s
Width : 1 920 pixels
Height : 804 pixels
Display aspect ratio : 2.40:1
Frame rate mode : Constant
Frame rate : 23.976 (24000/1001) FPS
Color space : YUV
Chroma subsampling : 4:2:0
Bit depth : 8 bits
Scan type : Progressive
Bits/(Pixel*Frame) : 0.168
Stream size : 4.10 GiB (92%)
Writing library : x264 core 148 r2638 7599210
Encoding settings : cabac=1 / ref=5 / deblock=1:-2:-1 / analyse=0x3:0x113 / me=umh / subme=11 / psy=1 / psy_rd=0.00:0.15 / mixed_ref=1 / me_range=32 / chroma_me=1 / trellis=2 / 8x8dct=1 / cqm=0 / deadzone=21,11 / fast_pskip=0 / chroma_qp_offset=-3 / threads=6 / lookahead_threads=1 / sliced_threads=0 / nr=0 / decimate=0 / interlaced=0 / bluray_compat=0 / constrained_intra=0 / bframes=10 / b_pyramid=2 / b_adapt=2 / b_bias=0 / direct=1 / weightb=1 / open_gop=0 / weightp=2 / keyint=240 / keyint_min=23 / scenecut=40 / intra_refresh=0 / rc_lookahead=40 / rc=2pass / mbtree=0 / bitrate=6200 / ratetol=1.0 / qcomp=0.65 / qpmin=0 / qpmax=69 / qpstep=4 / cplxblur=20.0 / qblur=0.5 / vbv_maxrate=50000 / vbv_bufsize=65500 / nal_hrd=none / filler=0 / ip_ratio=1.40 / pb_ratio=1.30 / aq=1:1.00
Language : English
Default : Yes
Forced : No
Audio
ID : 2
Format : AC-3
Format/Info : Audio Coding 3
Mode extension : CM (complete main)
Format settings, Endianness : Big
Codec ID : A_AC3
Duration : 1 h 36 min
Bit rate mode : Constant
Bit rate : 384 kb/s
Channel(s) : 6 channels
Channel positions : Front: L C R, Side: L R, LFE
Sampling rate : 48.0 kHz
Frame rate : 31.250 FPS (1536 spf)
Compression mode : Lossy
Stream size : 266 MiB (6%)
Title : Dub [iTunes]
Language : Russian
Default : Yes
Forced : Yes
Text
ID : 3
Format : UTF-8
Codec ID : S_TEXT/UTF8
Codec ID/Info : UTF-8 Plain Text
Title : Forced [For iTunes]
Language : Russian
Default : Yes
Forced : Yes
Menu
00:00:00.000 : en:Глава 01
00:11:07.542 : en:Глава 02
00:21:53.145 : en:Глава 03
00:32:22.899 : en:Глава 04
00:44:26.497 : en:Глава 05
00:58:33.427 : en:Глава 06
01:10:38.192 : en:Глава 07
01:18:23.949 : en:Глава 08
01:32:28.752 : en:Глава 09
Релиз от:
[Profile] [PM]
Display posts:    
Reply to topic

Current time is: 27-Sep 02:32

All times are UTC + 3



You cannot post new topics in this forum
You cannot reply to topics in this forum
You cannot edit your posts in this forum
You cannot delete your posts in this forum
You cannot vote in polls in this forum
You cannot attach files in this forum
You cannot download files in this forum