Королева (2020) WEB-DLRip-AVC от Files-х | iTunes

Reply to topic
 
Author Message

papa1951deda ®

Gender: Male

Longevity: 1 year 10 months

Posts: 691

Location: Казахстан

Post 15-Sep-2020 05:57

[Quote]

Королева Год выпуска: 2020
Жанр: Комедия
Выпущено: Россия, «Марс Медиа Энтертейнмент»
Режиссер: Таисия Игуменцева
В ролях: Татьяна Струженкова, Валерия Ёлкина, Данил Акутин, Егор Кенжаметов, Полина Кутепова, Максим Виторган, Софья Лебедева, Дарья Коныжева, Роман Плопер, Татьяна Рыбинец
О фильме: Настя - талантливая спортсменка, популярный блогер и первая красавица школы. Когда в класс приходит новенький, она ставит перед собой цель завоевать его внимание, но наталкивается на безразличие с его стороны. На что ей придётся пойти ради победы?

Качество: WEB-DLRip-AVC
Видео: MPEG 4 AVC, 1854 Кбит/с, 720x320, 24 кадр/с
Аудио: AC3, 6 ch, 384 Кбит/с
Продолжительность: 01:27:33
Перевод: Не требуется [Русский] | iTunes
Cубтитры: нет

Скриншоты


MediaInfo

General
Unique ID : 236953378642537803225322020795343965097 (0xB2438F8C568BECE3A66C01D584880BA9)
Complete name : H:\fiiles x\Королева.2020.WEB-DLRip.Files-x.mkv
Format : Matroska
File size : 1.37 GiB
Duration : 1h 27mn
Overall bit rate : 2 238 Kbps
Encoded date : UTC 2020-09-13 13:53:39
Writing application : mkvmerge v7.8.0 ('River Man') 32bit built on Apr 3 2015 12:11:22
Writing library : libebml v1.3.1 + libmatroska v1.4.2
Video
ID : 1
Format : AVC
Format/Info : Advanced Video Codec
Format profile : High@L4.1
Format settings, CABAC : Yes
Format settings, ReFrames : 9 frames
Codec ID : V_MPEG4/ISO/AVC
Duration : 1h 27mn
Bit rate : 1 854 Kbps
Width : 720 pixels
Height : 320 pixels
Display aspect ratio : 2.25:1
Frame rate : 24.000 fps
Color space : YUV
Chroma subsampling : 4:2:0
Bit depth : 8 bits
Scan type : Progressive
Bits/(Pixel*Frame) : 0.335
Stream size : 1.11 GiB (81%)
Writing library : x264 core 146 r2538 121396c
Encoding settings : cabac=1 / ref=9 / deblock=1:-2:-1 / analyse=0x3:0x133 / me=umh / subme=9 / psy=1 / psy_rd=1.00:0.15 / mixed_ref=1 / me_range=32 / chroma_me=1 / trellis=2 / 8x8dct=1 / cqm=0 / deadzone=21,11 / fast_pskip=0 / chroma_qp_offset=-3 / threads=18 / lookahead_threads=2 / sliced_threads=0 / nr=0 / decimate=1 / interlaced=0 / bluray_compat=0 / constrained_intra=0 / bframes=9 / b_pyramid=2 / b_adapt=2 / b_bias=0 / direct=3 / weightb=1 / open_gop=0 / weightp=2 / keyint=250 / keyint_min=23 / scenecut=40 / intra_refresh=0 / rc=2pass / mbtree=0 / bitrate=1854 / ratetol=1.0 / qcomp=0.60 / qpmin=0 / qpmax=69 / qpstep=4 / cplxblur=20.0 / qblur=0.5 / ip_ratio=1.40 / pb_ratio=1.30 / aq=2:1.00
Color primaries : BT.709-5, BT.1361, IEC 61966-2-4, SMPTE RP177
Transfer characteristics : BT.709-5, BT.1361
Matrix coefficients : BT.709-5, BT.1361, IEC 61966-2-4 709, SMPTE RP177
Audio
ID : 2
Format : AC-3
Format/Info : Audio Coding 3
Mode extension : CM (complete main)
Codec ID : A_AC3
Duration : 1h 27mn
Bit rate mode : Constant
Bit rate : 384 Kbps
Channel(s) : 6 channels
Channel positions : Front: L C R, Side: L R, LFE
Sampling rate : 48.0 KHz
Bit depth : 16 bits
Compression mode : Lossy
Stream size : 240 MiB (17%)
Релиз от:

Release was prepared by RG Files-x

[Profile] [PM]
Display posts:    
Reply to topic

Current time is: 20-Sep 18:11

All times are UTC + 3



You cannot post new topics in this forum
You cannot reply to topics in this forum
You cannot edit your posts in this forum
You cannot delete your posts in this forum
You cannot vote in polls in this forum
You cannot attach files in this forum
You cannot download files in this forum