Тайна Марии [1 сезон: 1-8 серии из 8] (2019) HDTV 1080p от R.G.Generalfilm

Reply to topic
 
Author Message

White Smoke ®

Gender: Male

Longevity: 1 year 10 months

Posts: 157

Post 15-Sep-2020 15:03

[Quote]

Тайна МарииГод выпуска: 2019
Жанр: Мелодрама
Выпущено: Россия, Украина, Filmstream, Vileton Films
Режиссер: Николай Михайлов
В ролях: Мария Куликова (Мария), Анна Кошмал (Мария в молодости), Валерий Николаев (Алексей Пронин), Владислав Никитюк (Алексей в молодости), Павел Баршак (Михаил), Мирослава Филиппович (Ольга), Леся Самаева (Света), Дарья Легейда (Света в молодости), Алексей Зубков (Николай), Алексей Яровенко (Николай в молодости), Юрий Гребельник (Лев Семёнович), Юлия Першута (Мэри)
О фильме: 1990-е годы. Провинциальная девушка Мария выходит замуж за начинающего предпринимателя Алексея. Однако счастливая жизнь длится недолго: конфликт с местной мафией приводит Алексея на скамью подсудимых. Он решает освободить любимую от клейма «жены уголовника», не отвечая на письма и отказываясь от свиданий. Пытаясь начать жизнь с чистого листа, Мария отправляется в Москву, где встречает Михаила. Между ними вспыхивает страстный роман. После рождения их дочери оказывается, что Михаил женат, и его супруга тоже ждет наследника. Но Марию ждет еще один удар: при загадочных обстоятельствах ее новорожденную дочь похищают.
Мировая премьера: 30 сентября 2019 (ТРК Украина)
Премьера (РФ): 14 сентября 2020 Телеканал Россия 1

Качество: HDTV 1080p
Видео: AVC, 1080pPAL, 1920x1080 (16:9), 7050 kbps, 25 fps, 0,136 bpp
Аудио: AC3, 2.0, 48 kHz, 192 kbps CBR
Продолжительность: ~ 00:43:59
Перевод : Не требуется
Субтитры: нет

Скриншоты

MediaInfo

General
Unique ID : 211783846378334305593312308793265595145 (0x9F5415CC3E42E1F0B5F54BF27417A309)
Complete name : E:\Запись с тв\TAJNA MARII 2019 HDTV 1080p.R.G.Generalfilm\Tajna marii.s01.e01.2019.HDTV 1080p.by.White Smoke.R.G.Generalfilm.mkv
Format : Matroska
Format version : Version 4 / Version 2
File size : 2.22 GiB
Duration : 43 min
Overall bit rate mode : Constant
Overall bit rate : 7 235 kb/s
Movie name : Tajna marii.s01.e01.2019.HDTV 1080p.by.White Smoke.R.G.Generalfilm.mkv
Encoded date : UTC 2020-09-15 11:23:56
Writing application : mkvmerge v6.8.0 ('Theme for Great Cities') 64bit built on Mar 2 2014 21:34:26
Writing library : libebml v1.3.0 + libmatroska v1.4.1
Cover : Yes
Attachments : cover.jpg
Video
ID : 1
Format : AVC
Format/Info : Advanced Video Codec
Format profile : High@L4.1
Format settings, CABAC : Yes
Format settings, ReFrames : 3 frames
Codec ID : V_MPEG4/ISO/AVC
Duration : 43 min
Bit rate mode : Constant
Bit rate : 7 051 kb/s
Width : 1 920 pixels
Height : 1 080 pixels
Display aspect ratio : 16:9
Frame rate mode : Constant
Frame rate : 25.000 FPS
Standard : PAL
Color space : YUV
Chroma subsampling : 4:2:0
Bit depth : 8 bits
Scan type : Progressive
Bits/(Pixel*Frame) : 0.136
Stream size : 2.12 GiB (95%)
Default : Yes
Forced : No
Color range : Limited
Color primaries : BT.709
Transfer characteristics : BT.709
Matrix coefficients : BT.709
Audio
ID : 2
Format : AC-3
Format/Info : Audio Coding 3
Mode extension : CM (complete main)
Format settings, Endianness : Big
Codec ID : A_AC3
Duration : 43 min
Bit rate mode : Constant
Bit rate : 192 kb/s
Channel(s) : 2 channels
Channel positions : Front: L R
Sampling rate : 48.0 kHz
Frame rate : 31.250 FPS (1536 spf)
Compression mode : Lossy
Stream size : 60.4 MiB (3%)
Default : Yes
Forced : No

Раздача ведётся путём добавления новых серий

Внимание! Раздача ведётся путём добавления новых серий; при каждом добавлении создаётся новый торрент.
Чтобы начать докачку новой серии, пользователям необходимо сделать следующее:
1. Остановить скачивание;
2. Удалить старый торрент у себя из клиента (старые серии удалять не надо);
3. Скачать новый торрент и запустить его у себя в клиенте вместо старого, при этом указать клиенту путь в старую папку куда и должно происходить скачивание новых серий. Ваш клиент при этом должен произвести хеширование (проверку) старой папки и будет докачивать только те серии, которых у вас ещё нет. Старые серии при этом не удаляются, а продолжают раздаваться! Eсли вы уже удалили старые серии, то предотвратить повторную закачку старых серий можно, отжав галочку в соответствующих местах при запуске нового торрента.
Релиз от:
[Profile] [PM]
Display posts:    
Reply to topic

Current time is: 25-Sep 23:02

All times are UTC + 3



You cannot post new topics in this forum
You cannot reply to topics in this forum
You cannot edit your posts in this forum
You cannot delete your posts in this forum
You cannot vote in polls in this forum
You cannot attach files in this forum
You cannot download files in this forum