По следу монстра [1-4 серии из 4] (2020) WEBRip от GeneralFilm

Reply to topic
 
Author Message

vsobbol ®

Gender: Male

Longevity: 1 year 11 months

Posts: 734

Location: Донецк

Post 27-Sep-2020 17:10

[Quote]

По следу монстра
Год выпуска: 2020
Жанр: Документальный, криминал, расследование
Выпущено: Россия, «Киностудия Лига»
Ведущий: Александр Яцко
О фильме: «По следу монстра» — художественно-документальный цикл, в основу которого легли реальные истории, потрясшие всю страну. Новый проект телеканала — это сочетание игрового кино и настоящей документалистики, а каждая серия — история поиска преступника, пытающегося уйти от наказания. Реальные дела, реальные участники, родственники, свидетели и ответы на животрепещущие вопросы: что превращает человека в монстра, почему он становится убийцей и можно ли его распознать, пока не случилась большая беда?
Качество: WEBRip
Видео: XviD build 69, 720x400 (16:9), 25.000 fps, ~ 1550 Kbps (~ 0.215 bit/pixel)
Аудио: 48.0 kHz, MP3, 2/0 ch, 192 kbps
Продолжительность: 4 x ~ 00:45:00
Перевод: Не требуется [Русский]
Cубтитры: нет

Скриншоты

MediaInfo

General
Complete name : D:\Razdachi\Po.Sledu.Monstra.2020.WEBRip.GeneralFilm\e01.Po.Sledu.Monstra.avi
Format : AVI
Format/Info : Audio Video Interleave
File size : 557 MiB
Duration : 44 min 55 s
Overall bit rate : 1 734 kb/s
Writing application : VirtualDubMod 1.5.10.3 | www.virtualdub-fr.org || (build 2550/release)
Writing library : VirtualDubMod build 2550/release
Video
ID : 0
Format : MPEG-4 Visual
Format profile : Advanced Simple@L5
Format settings : BVOP1 / Custom Matrix
Format settings, BVOP : 1
Format settings, QPel : No
Format settings, GMC : No warppoints
Format settings, Matrix : Custom
Codec ID : XVID
Codec ID/Hint : XviD
Duration : 44 min 55 s
Bit rate : 1 532 kb/s
Width : 720 pixels
Height : 400 pixels
Display aspect ratio : 16:9
Frame rate : 25.000 FPS
Color space : YUV
Chroma subsampling : 4:2:0
Bit depth : 8 bits
Scan type : Progressive
Compression mode : Lossy
Bits/(Pixel*Frame) : 0.213
Stream size : 492 MiB (88%)
Writing library : XviD 69
Audio
ID : 1
Format : MPEG Audio
Format version : Version 1
Format profile : Layer 3
Codec ID : 55
Codec ID/Hint : MP3
Duration : 44 min 55 s
Bit rate mode : Constant
Bit rate : 192 kb/s
Channel(s) : 2 channels
Sampling rate : 48.0 kHz
Frame rate : 41.667 FPS (1152 SPF)
Compression mode : Lossy
Stream size : 61.7 MiB (11%)
Alignment : Aligned on interleaves
Interleave, duration : 40 ms (1.00 video frame)
Interleave, preload duratio : 504 ms
Writing library : LAME3.99r
Encoding settings : -m s -V 4 -q 2 -lowpass 18.6 -b 192

Содержание:

01:«Кто убил мою маму?»
В Сосновом Бору в Ленинградской области происходит трагедия: жертвой неизвестного убийцы становится немолодая женщина. Дочь погибшей уверена: преступник либо мамин муж, либо его взрослый сын. Но у обоих есть железное алиби. За дело берется опытный следователь и вскоре выясняет, что недавно в городе произошло похожее по почерку убийство. Неужели в тихом городке появился маньяк?
02:«В постели с маньяком»
Дело об убийстве восьмиклассницы Оли Медведевой на спортплощадке школьного двора шокировало весь Екатеринбург. 41 ранение ножом, никаких свидетелей и следов самого преступника… Поиски убийцы продлились шесть лет. Никто не знал, что первой жертвой этого монстра стала его собственная жена. Ей пришлось пройти настоящий ад, в котором заложником оказалась не только она, но и ее маленький ребенок.
03:«Родная кровь»
Трагедия, которая потрясла не только Воронеж, но и всю Россию: в частном секторе, на приличной улице с обычными, ничем не примечательными домами произошло страшное событие — на пороге собственного дома молодых людей Александра и Наталью расстреляли из охотничьего ружья. Реальная история, реальные участники, родственники и свидетели, и ответы на самые животрепещущие вопросы.
04:«Пункт назначения»
За несколько лет в пригородах Орска бесследно исчезли 29 девочек и женщин. По неофициальным данным, их было около 100. Поначалу следствие не располагало никакими зацепками. Когда наконец было найдено тело одной из пропавших, сыщики поняли, что маньяк перед расправой где-то держит пленницу, а затем избавляется от трупа…
История поисков орского изверга, а также воспоминания следователей и родственников жертв — в первом выпуске проекта «По следу монстра».
Релиз от:
[Profile] [PM]
Display posts:    
Reply to topic

Current time is: 26-Oct 22:17

All times are UTC + 3



You cannot post new topics in this forum
You cannot reply to topics in this forum
You cannot edit your posts in this forum
You cannot delete your posts in this forum
You cannot vote in polls in this forum
You cannot attach files in this forum
You cannot download files in this forum