Медный всадник России (2019) WEB-DLRip от Files-х | iTunes

Reply to topic
 
Author Message

papa1951deda ®

Gender: Male

Longevity: 1 year 11 months

Posts: 749

Location: Казахстан

Post 16-Oct-2020 20:08

[Quote]

Медный всадник России Год выпуска: 2019
Жанр: История, драма
Выпущено: Россия, Кинокомпания «Круглый стол»
Режиссер: Василий Ливанов
В ролях: Ольга Белова, Андрей Соколов, Евгений Редько, Валерия Ланская, Денис Ткачев, Борис Хвошнянский, Борис Ливанов мл., Юрий Лопарёв, Евгений Стеблов, Владимир Тягичев, Владимир Ильин, Юрий Стоянов, Мария Свирид, Юрий Назаров
О фильме: История создания памятника Петру I, благодаря поэме Александра Сергеевича Пушкина известного как «Медный всадник». По приглашению императрицы Екатерины II скульптор Этьен-Морис Фальконе приезжает из Франции для создания монумента. Благодаря кропотливой работе и мучительным творческим поискам мастера памятник становится не просто произведением искусства, но одним из символов России.
Качество: WEB-DLRip
Видео: XviD, 1660 Кбит/с, 720x400, 24 кадр/с
Аудио: Русский (AC3, 6 ch, 384 Кбит/с)
Продолжительность: 01:36:52
Перевод: Не требуется [Русский] | iTunes
Субтитры: нет

Скриншоты

MediaInfo

General
Complete name : C:\Users\user\Downloads\Video\Медный всадник России.2019.WEB-DLRip.Files-x.avi
Format : AVI
Format/Info : Audio Video Interleave
File size : 1.46 GiB
Duration : 1h 41mn
Overall bit rate : 2 053 Kbps
Writing application : VirtualDubMod 1.5.10.3 | www.virtualdub-fr.org || (build 2550/release)
Writing library : VirtualDubMod build 2550/release
Video
ID : 0
Format : MPEG-4 Visual
Format profile : Advanced Simple@L5
Format settings, BVOP : 1
Format settings, QPel : No
Format settings, GMC : No warppoints
Format settings, Matrix : Custom
Codec ID : XVID
Codec ID/Hint : XviD
Duration : 1h 41mn
Bit rate : 1 660 Kbps
Width : 720 pixels
Height : 400 pixels
Display aspect ratio : 16:9
Frame rate : 24.000 fps
Color space : YUV
Chroma subsampling : 4:2:0
Bit depth : 8 bits
Scan type : Progressive
Compression mode : Lossy
Bits/(Pixel*Frame) : 0.240
Stream size : 1.18 GiB (81%)
Writing library : XviD 73
Audio
ID : 1
Format : AC-3
Format/Info : Audio Coding 3
Mode extension : CM (complete main)
Codec ID : 2000
Duration : 1h 41mn
Bit rate mode : Constant
Bit rate : 384 Kbps
Channel(s) : 6 channels
Channel positions : Front: L C R, Side: L R, LFE
Sampling rate : 48.0 KHz
Bit depth : 16 bits
Compression mode : Lossy
Stream size : 280 MiB (19%)
Alignment : Split accross interleaves
Interleave, duration : 42 ms (1.00 video frame)
Interleave, preload duration : 500 ms
Релиз от:

Release was prepared by RG Files-x

[Profile] [PM]
Display posts:    
Reply to topic

Current time is: 23-Oct 11:23

All times are UTC + 3



You cannot post new topics in this forum
You cannot reply to topics in this forum
You cannot edit your posts in this forum
You cannot delete your posts in this forum
You cannot vote in polls in this forum
You cannot attach files in this forum
You cannot download files in this forum