Созданный в Бездне: Рассвет глубокой души / Gekijouban Made in Abyss: Fukaki Tamashii no Reimei (2020) BDRip 1080p | StudioBand

Reply to topic
 
Author Message

Monk ®

Gender: Male

Longevity: 2 years

Posts: 14016

Location: Казань

Post 27-Oct-2020 12:56

[Quote]

Созданный в Бездне: Рассвет глубокой души / Gekijouban Made in Abyss: Fukaki Tamashii no Reimei Год выпуска: 2020
Жанр: Приключения, фэнтези, драма, полнометражный
Выпущено: Япония, Kinema Citrus
Режиссер: Масаюки Кодзима
В ролях: Мию Томита, Мария Исэ, Сиори Идзава, Инори Минасэ, Саяка Охара, Тэцу Инада, Эри Китамура, Нацуко Хара, Синдзи Кавада, Ёсимицу Симояма, Хироки Гото, Синносукэ Мусаси, Акихиро Тадзима, Такаюки Накацукаса, Гэнта Накамура, Юуки Син, Косукэ Этигоя, Маая Сакамото, Тосиюки Морикава
О фильме: Рико, Рег и Наначи продолжают путешествие вниз по Бездне. Они проходят через Сад цветов стойкости и спускаются на пятый уровень. Там они оказываются на пороге Идофронта — последней базы людей в Бездне. Это самое глубокое место, откуда ещё можно вернуться на поверхность. Их встречает Прушка — приёмная дочь Бондруда, того самого Белого Свистка, который проводил бесчеловечные эксперименты над Наначи, Митти и другими детьми. Вскоре Бондруд лично выходит поприветствовать их и приглашает погостить на Идофронте. Однако, несмотря на свой неизменно дружественный настрой, в погоне за знаниями Бондруд не остановится ни перед чем, и Рег его чрезвычайно заинтересовал. Какие же новые испытания приготовила Бездна для отважной троицы?
Качество: BDRip 1080p
Видео: MPEG-4 AVC, 4653 Kбит/с, 1920x1080
Аудио: Русский (АAC, 2 ch, 128 Кбит/с), японский (AAC, 2 ch, 256 Кбит/с), (AC3, 6 ch, 448 Кбит/с)
Продолжительность: 01:44:53
Перевод: Дублированный [StudioBand]
Субтитры: Русские (софтсаб)

Скриншоты



MediaInfo

General
Unique ID : 280635068432185684683359919184148566230 (0xD3205921EC3C31CD240EEA9D935210D6)
Complete name : T:\V\encode\Made in Abyss - Fukaki Tamashii no Reimei (2020, BDRip 1080p QF16).mkv
Format : Matroska
Format version : Version 4
File size : 4.02 GiB
Duration : 1 h 44 min
Overall bit rate : 5 488 kb/s
Encoded date : UTC 2020-10-02 13:49:31
Writing application : mkvmerge v50.0.0 ('Awakenings') 64-bit
Writing library : libebml v1.4.0 + libmatroska v1.6.2
Video
ID : 1
Format : AVC
Format/Info : Advanced Video Codec
Format profile : High@L4.1
Format settings : CABAC / 4 Ref Frames
Format settings, CABAC : Yes
Format settings, Reference frames : 4 frames
Codec ID : V_MPEG4/ISO/AVC
Duration : 1 h 44 min
Bit rate : 4 653 kb/s
Width : 1 920 pixels
Height : 1 080 pixels
Display aspect ratio : 16:9
Frame rate mode : Constant
Frame rate : 23.976 (23976/1000) FPS
Color space : YUV
Chroma subsampling : 4:2:0
Bit depth : 8 bits
Scan type : Progressive
Bits/(Pixel*Frame) : 0.094
Stream size : 3.41 GiB (85%)
Writing library : x264 core 157 r2969 d4099dd
Encoding settings : cabac=1 / ref=4 / deblock=1:1:1 / analyse=0x3:0x133 / me=umh / subme=9 / psy=1 / psy_rd=1.00:0.00 / mixed_ref=1 / me_range=24 / chroma_me=1 / trellis=2 / 8x8dct=1 / cqm=0 / deadzone=21,11 / fast_pskip=1 / chroma_qp_offset=-2 / threads=44 / lookahead_threads=8 / sliced_threads=0 / nr=0 / decimate=1 / interlaced=0 / bluray_compat=0 / constrained_intra=0 / bframes=10 / b_pyramid=2 / b_adapt=2 / b_bias=0 / direct=3 / weightb=1 / open_gop=0 / weightp=2 / keyint=250 / keyint_min=25 / scenecut=40 / intra_refresh=0 / rc=cqp / mbtree=0 / qp=16 / ip_ratio=1.40 / pb_ratio=1.30 / aq=0
Default : Yes
Forced : No
Audio #1
ID : 2
Format : AC-3
Format/Info : Audio Coding 3
Commercial name : Dolby Digital
Codec ID : A_AC3
Duration : 1 h 44 min
Bit rate mode : Constant
Bit rate : 448 kb/s
Channel(s) : 6 channels
Channel layout : L R C LFE Ls Rs
Sampling rate : 48.0 kHz
Frame rate : 31.250 FPS (1536 SPF)
Bit depth : 16 bits
Compression mode : Lossy
Stream size : 336 MiB (8%)
Title : 5.1
Language : Japanese
Service kind : Complete Main
Default : No
Forced : No
Audio #2
ID : 3
Format : AAC LC
Format/Info : Advanced Audio Codec Low Complexity
Codec ID : A_AAC-2
Duration : 1 h 44 min
Bit rate : 256 kb/s
Channel(s) : 2 channels
Channel layout : L R
Sampling rate : 48.0 kHz
Frame rate : 46.875 FPS (1024 SPF)
Compression mode : Lossy
Delay relative to video : 9 ms
Stream size : 192 MiB (5%)
Title : 2.0
Language : Japanese
Default : Yes
Forced : No
Audio #3
ID : 4
Format : AAC LC
Format/Info : Advanced Audio Codec Low Complexity
Codec ID : A_AAC-2
Duration : 1 h 44 min
Bit rate : 128 kb/s
Channel(s) : 2 channels
Channel layout : L R
Sampling rate : 48.0 kHz
Frame rate : 46.875 FPS (1024 SPF)
Compression mode : Lossy
Stream size : 96.0 MiB (2%)
Title : StudioBand, 4Wakanim
Language : Russian
Default : No
Forced : No
Text
ID : 5
Format : UTF-8
Codec ID : S_TEXT/UTF8
Codec ID/Info : UTF-8 Plain Text
Duration : 1 h 39 min
Bit rate : 90 b/s
Count of elements : 1556
Stream size : 65.6 KiB (0%)
Title : Wakanim
Language : Russian
Default : Yes
Forced : No
[Profile] [PM]
Display posts:    
Reply to topic

Current time is: 27-Nov 12:11

All times are UTC + 3



You cannot post new topics in this forum
You cannot reply to topics in this forum
You cannot edit your posts in this forum
You cannot delete your posts in this forum
You cannot vote in polls in this forum
You cannot attach files in this forum
You cannot download files in this forum