Белка и Стрелка. Карибская тайна (2020) WEB-DLRip-AVC от Files-х | iTunes

Reply to topic
 
Author Message

papa1951deda ®

Gender: Male

Longevity: 2 years

Posts: 788

Location: Казахстан

Post 09-Nov-2020 17:30

[Quote]

Белка и Стрелка. Карибская тайна Год выпуска: 2020
Жанр: Мультфильм, комедия, приключения, семейный, полнометражный
Выпущено: Россия, Киностудия им. М. Горького, КиноАтис
Режиссер: Инна Евланникова
В ролях: Евгений Миронов, Ирина Пегова, Юлия Пересильд, Сергей Шнуров, Сергей Бурунов, Сергей Дьячков, Диомид Виноградов, Елена Шульман, Антон Виноградов, Андрей Лёвин
О фильме: У берегов Кубы происходит загадочная аномалия – огромный водяной смерч всасывает воду, осушая океан. Решением советского командования Белка и Стрелка отправляются к острову братских народов с разведывательной миссией. Красочная Куба, лазурная гладь океана и окутанный тайнами подводный мир встречают героев. Четвероногим исследователям и их команде предстоят опасные приключения, которые не только приведут их к разгадке кубинской аномалии, но и проверят дружбу на прочность.

Качество: WEB-DLRip-AVC
Видео: MPEG-4 AVC, 2069 Кбит/с, 720x384, 24 кадр/с
Аудио: AC3, 6 ch, 384 Кбит/с
Продолжительность: 01:19:52
Перевод: Не требуется | iTunes
Субтитры: Нет

Скриншоты

MediaInfo

General
Unique ID : 203111484601765045458971349090141260602 (0x98CDD959A8E2DBD09D4C31093ECCCB3A)
Complete name : C:\Users\user\Downloads\Video\Белка и Стрелка. Карибская тайна.2020..WEB-DLRip. Files-x.mkv
Format : Matroska
File size : 1.37 GiB
Duration : 1h 19mn
Overall bit rate : 2 454 Kbps
Encoded date : UTC 2020-11-09 00:22:35
Writing application : mkvmerge v7.8.0 ('River Man') 32bit built on Apr 3 2015 12:11:22
Writing library : libebml v1.3.1 + libmatroska v1.4.2
Video
ID : 1
Format : AVC
Format/Info : Advanced Video Codec
Format profile : High@L4.1
Format settings, CABAC : Yes
Format settings, ReFrames : 9 frames
Codec ID : V_MPEG4/ISO/AVC
Duration : 1h 19mn
Bit rate : 2 069 Kbps
Width : 720 pixels
Height : 384 pixels
Display aspect ratio : 1.875
Frame rate : 24.000 fps
Color space : YUV
Chroma subsampling : 4:2:0
Bit depth : 8 bits
Scan type : Progressive
Bits/(Pixel*Frame) : 0.312
Stream size : 1.13 GiB (82%)
Writing library : x264 core 146 r2538 121396c
Encoding settings : cabac=1 / ref=9 / deblock=1:-2:-1 / analyse=0x3:0x133 / me=umh / subme=9 / psy=1 / psy_rd=1.00:0.15 / mixed_ref=1 / me_range=32 / chroma_me=1 / trellis=2 / 8x8dct=1 / cqm=0 / deadzone=21,11 / fast_pskip=0 / chroma_qp_offset=-3 / threads=18 / lookahead_threads=3 / sliced_threads=0 / nr=0 / decimate=1 / interlaced=0 / bluray_compat=0 / constrained_intra=0 / bframes=9 / b_pyramid=2 / b_adapt=2 / b_bias=0 / direct=3 / weightb=1 / open_gop=0 / weightp=2 / keyint=250 / keyint_min=23 / scenecut=40 / intra_refresh=0 / rc=2pass / mbtree=0 / bitrate=2069 / ratetol=1.0 / qcomp=0.60 / qpmin=0 / qpmax=69 / qpstep=4 / cplxblur=20.0 / qblur=0.5 / ip_ratio=1.40 / pb_ratio=1.30 / aq=2:1.00
Color primaries : BT.709-5, BT.1361, IEC 61966-2-4, SMPTE RP177
Transfer characteristics : BT.709-5, BT.1361
Matrix coefficients : BT.709-5, BT.1361, IEC 61966-2-4 709, SMPTE RP177
Audio
ID : 2
Format : AC-3
Format/Info : Audio Coding 3
Mode extension : CM (complete main)
Codec ID : A_AC3
Duration : 1h 19mn
Bit rate mode : Constant
Bit rate : 384 Kbps
Channel(s) : 6 channels
Channel positions : Front: L C R, Side: L R, LFE
Sampling rate : 48.0 KHz
Bit depth : 16 bits
Compression mode : Lossy
Stream size : 219 MiB (16%)
Релиз от:

Release was prepared by RG Files-x

[Profile] [PM]
Display posts:    
Reply to topic

Current time is: 27-Nov 11:58

All times are UTC + 3



You cannot post new topics in this forum
You cannot reply to topics in this forum
You cannot edit your posts in this forum
You cannot delete your posts in this forum
You cannot vote in polls in this forum
You cannot attach files in this forum
You cannot download files in this forum