Вписка у Маргулиса [1-2 выпуск из ??] (2020) WEBRip 720 от Files-x

Reply to topic
 
Author Message

bond74 ®

Gender: Male

Longevity: 2 years

Posts: 968

Post 16-Nov-2020 21:48

[Quote]

Вписка у Маргулиса Год выпуска: 2020
Жанр: Ток-шоу
Выпущено: Россия, ТНТ
О фильме:«Новый формат уже полюбившихся «квартирников». Как и прежде: живой звук, крутая атмосфера, интересные разговоры, но теперь – еще больше новой музыки! На «Вписку у Маргулиса» попадут только свежие музыкальные герои. Евгений Маргулис и Cаша ST познакомят с яркими и неординарными и изменят взгляд на тех, кого ты уже знаешь», — обещают авторы проекта.
Качество: WEBRip 720
Видео: MPEG-4 AVC, ~ 3000 Кбит/с, 1280x544, 25 кадр/с
Аудио: AC3, 2 ch, 192 Кбит/с
Продолжительность: 2 x ~ 00:36:00
Перевод: Не требуется [Русский]
Cубтитры: нет

Скриншоты

MediaInfo

General
General
Unique ID : 194617732018684005900795440757514490969 (0x926A0304098005F48ADC7BD8E034D459)
Complete name : H:\шоу\Вписка у Маргулиса .2020. WEB-DL 720p. Files-x\01. Вписка у Маргулиса .2020. WEB-DL 720p. Files-x.mkv
Format : Matroska
File size : 806 MiB
Duration : 35mn 23s
Overall bit rate : 3 185 Kbps
Encoded date : UTC 2020-11-16 16:20:24
Writing application : mkvmerge v7.8.0 ('River Man') 32bit built on Apr 3 2015 12:11:22
Writing library : libebml v1.3.1 + libmatroska v1.4.2
Video
ID : 1
Format : AVC
Format/Info : Advanced Video Codec
Format profile : High@L3.1
Format settings, CABAC : Yes
Format settings, ReFrames : 1 frame
Codec ID : V_MPEG4/ISO/AVC
Duration : 35mn 23s
Bit rate mode : Variable
Bit rate : 2 929 Kbps
Maximum bit rate : 3 000 Kbps
Width : 1 280 pixels
Height : 544 pixels
Display aspect ratio : 2.35:1
Frame rate : 25.000 fps
Color space : YUV
Chroma subsampling : 4:2:0
Bit depth : 8 bits
Scan type : Progressive
Bits/(Pixel*Frame) : 0.168
Stream size : 742 MiB (92%)
Audio
ID : 2
Format : AC-3
Format/Info : Audio Coding 3
Mode extension : CM (complete main)
Codec ID : A_AC3
Duration : 35mn 23s
Bit rate mode : Constant
Bit rate : 192 Kbps
Channel(s) : 2 channels
Channel positions : Front: L R
Sampling rate : 44.1 KHz
Bit depth : 16 bits
Compression mode : Lossy
Delay relative to video : 9ms
Stream size : 48.6 MiB (6%)

Внимание! Раздача ведётся путём добавления новых серий

Раздача ведётся путём добавления новых серий, при каждом добавлении создаётся новый торрент. Чтобы начать докачку новой серии, пользователям необходимо сделать следующее:
- Остановить скачивание.
- Удалить старый торрент у себя из клиента (старые серии удалять не надо).
- Скачать новый торрент и запустить его у себя в клиенте вместо старого, при этом указать клиенту путь в старую папку куда и должно происходить скачивание новых серий.
Ваш клиент при этом должен произвести хеширование (проверку) старой папки (если не производит сам - помогите ему сделать это), и будет докачивать только те серии которых у вас ещё нет. Старые серии при этом не удаляются, а продолжают раздаваться!
Релиз:

Release was prepared by RG Files-x

[Profile] [PM]
Display posts:    
Reply to topic

Current time is: 27-Nov 11:17

All times are UTC + 3



You cannot post new topics in this forum
You cannot reply to topics in this forum
You cannot edit your posts in this forum
You cannot delete your posts in this forum
You cannot vote in polls in this forum
You cannot attach files in this forum
You cannot download files in this forum