Перевал Дятлова [1-7 серии из 8] (2020) HDTV 1080p от R.G.Generalfilm

Reply to topic
 
Author Message

HardwareMining ®

Gender: Male

Longevity: 1 year 1 month

Posts: 51

Post 18-Nov-2020 10:43

[Quote]

Перевал Дятлова Год выпуска: 2020
Жанр: Триллер, детектив
Выпущено: Россия
Режиссер: Валерий Федорович, Евгений Никишов, Павел Костомаров
В ролях: Пётр Фёдоров (Костин), Мария Луговая (Катя), Андрей Добровольский (Окунев), Иван Мулин (Игорь Дятлов), Александр Метёлкин (Юрий Дорошенко), Мария Мацель (Зинаида Колмогорова), Ирина Лукина (Людмила Дубинина), Максим Емельянов (Георгий Кривонищенко), Егор Бероев (Семен Золотарев), Евгений Антропов (Александр Колеватов), Роман Евдокимов (Рустем Слободин), Максим Костромыкин (Юрий Дудин)
О фильме: Зима 1959 года. Уральские горы. Группа из девяти студентов под руководством Игоря Дятлова отправилась в поход к заснеженным вершинам. Из этого путешествия живым не вернулся никто. Что произошло с туристами? Погибли под снежной лавиной, были убиты местными жителями или беглыми заключенными? Или же их смерть вызвана встречей со сверхъестественным? Это предстоит выяснить следственной группе под руководством майора Олега Костина. Отправившись на место происшествия, Костин понимает, что в этом деле слишком много деталей, которые не укладываются ни в одну из версий.
Премьера (РФ): 16 ноября 2020

Качество: HDTV 1080p
Видео: MPEG-4 AVC,1920x1080 (16:9), 7050 kbps, 25 fps, 0,136 bpp
Аудио: AC3, 2.0, 48 kHz, 192 kbps CBR
Продолжительность: 00:53:05
Перевод / Озвучка: Не требуется
Субтитры: нет

Скриншоты

MediaInfo

General
Unique ID : 253264991001469040721625944610600017391 (0xBE891020FED033FE8F8A86B66A865DEF)
Complete name : G:\GF\Pereval dyatlova\Pereval dyatlova - 1 seriya.mkv
Format : Matroska
Format version : Version 4 / Version 2
File size : 2.66 GiB
Duration : 53 min
Overall bit rate mode : Constant
Overall bit rate : 7 169 kb/s
Movie name : Rip.by.HardwareMining.R.G.Generalfilm
Encoded date : UTC 2020-11-17 18:05:25
Writing application : mkvmerge v6.8.0 ('Theme for Great Cities') 64bit built on Mar 2 2014 21:34:26
Writing library : libebml v1.3.0 + libmatroska v1.4.1
Cover : Yes
Attachments : cover.jpg
Video
ID : 1
Format : AVC
Format/Info : Advanced Video Codec
Format profile : High@L4.1
Format settings, CABAC : Yes
Format settings, ReFrames : 3 frames
Format settings, GOP : M=3, N=33
Codec ID : V_MPEG4/ISO/AVC
Duration : 53 min
Bit rate mode : Constant
Bit rate : 7 051 kb/s
Width : 1 920 pixels
Height : 1 080 pixels
Display aspect ratio : 16:9
Frame rate mode : Constant
Frame rate : 25.000 FPS
Standard : PAL
Color space : YUV
Chroma subsampling : 4:2:0
Bit depth : 8 bits
Scan type : Progressive
Bits/(Pixel*Frame) : 0.136
Stream size : 2.53 GiB (95%)
Default : Yes
Forced : No
Color range : Limited
Color primaries : BT.709
Transfer characteristics : BT.709
Matrix coefficients : BT.709
Audio
ID : 2
Format : AC-3
Format/Info : Audio Coding 3
Mode extension : CM (complete main)
Format settings, Endianness : Big
Codec ID : A_AC3
Duration : 53 min
Bit rate mode : Constant
Bit rate : 192 kb/s
Channel(s) : 2 channels
Channel positions : Front: L R
Sampling rate : 48.0 kHz
Frame rate : 31.250 FPS (1536 spf)
Compression mode : Lossy
Stream size : 72.9 MiB (3%)
Default : Yes
Forced : No

Раздача ведётся путём добавления новых серий

Внимание! Раздача ведётся путём добавления новых серий; при каждом добавлении создаётся новый торрент.
Чтобы начать докачку новой серии, пользователям необходимо сделать следующее:
1. Остановить скачивание;
2. Удалить старый торрент у себя из клиента (старые серии удалять не надо);
3. Скачать новый торрент и запустить его у себя в клиенте вместо старого, при этом указать клиенту путь в старую папку куда и должно происходить скачивание новых серий. Ваш клиент при этом должен произвести хеширование (проверку) старой папки и будет докачивать только те серии, которых у вас ещё нет. Старые серии при этом не удаляются, а продолжают раздаваться! Eсли вы уже удалили старые серии, то предотвратить повторную закачку старых серий можно, отжав галочку в соответствующих местах при запуске нового торрента.
Релиз от:
[Profile] [PM]
Display posts:    
Reply to topic

Current time is: 27-Nov 11:56

All times are UTC + 3



You cannot post new topics in this forum
You cannot reply to topics in this forum
You cannot edit your posts in this forum
You cannot delete your posts in this forum
You cannot vote in polls in this forum
You cannot attach files in this forum
You cannot download files in this forum