Гнездо / The Nest (2019) WEB-DL 1080p | iTunes

Reply to topic
 
Author Message

Monk ®

Gender: Male

Longevity: 2 years

Posts: 14016

Location: Казань

Post 19-Nov-2020 00:57

[Quote]

Гнездо / The Nest Год выпуска: 2019
Жанр: Драма
Выпущено: Великобритания, Канада, Element Pictures, BBC Films, FilmNation Entertainment
Режиссер: Шон Дуркин
В ролях: Джуд Лоу, Кэрри Кун, Уна Рош, Чарли Шотуэлл, Таня Аллен, Таттиона Джонс, Маркус Корнуолл, Майкл Калкин, Адиль Ахтар, Аннабел Левентон
О фильме: Роскошный особняк, успешный бизнес, красавица жена и послушные дети – все это есть у талантливого предпринимателя Рори. Но ему хочется большего. И вот в погоне за наживой он бросает все и отправляется в Англию покорять новые вершины. Но Старый свет не так прост. И Рори приходится изворачиваться, лгать и предавать, чтобы сохранить свой роскошный стиль жизни. На что он готов ради своей жажды власти и денег?
Качество: WEB-DL 1080p
Видео: MPEG-4 AVC, 4997 Кбит/с, 1920x1038
Аудио: Русский (AC3, 6 ch, 384 Кбит/с)
Продолжительность: 01:47:11
Перевод: Дублированный [iTunes]

Скриншоты


MediaInfo

Format : Matroska
Format version : Version 4
File size : 4.03 GiB
Duration : 1 h 47 min
Overall bit rate : 5 383 kb/s
Encoded date : UTC 2020-11-16 21:07:59
Writing application : mkvmerge v51.0.0 ('I Wish') 64-bit
Writing library : libebml v1.4.0 + libmatroska v1.6.2
Cover : Yes
Attachments : cover.jpg
Video
ID : 1
Format : AVC
Format/Info : Advanced Video Codec
Format profile : High@L4
Format settings : CABAC / 4 Ref Frames
Format settings, CABAC : Yes
Format settings, Reference : 4 frames
Codec ID : V_MPEG4/ISO/AVC
Duration : 1 h 47 min
Bit rate : 4 997 kb/s
Width : 1 920 pixels
Height : 1 038 pixels
Display aspect ratio : 1.85:1
Frame rate mode : Constant
Frame rate : 24.000 FPS
Color space : YUV
Chroma subsampling : 4:2:0
Bit depth : 8 bits
Scan type : Progressive
Bits/(Pixel*Frame) : 0.104
Stream size : 3.74 GiB (93%)
Title : ELEKTRI4KA
Language : English
Default : Yes
Forced : No
Color range : Limited
Color primaries : BT.709
Transfer characteristics : BT.709
Matrix coefficients : BT.709
Audio
ID : 2
Format : AC-3
Format/Info : Audio Coding 3
Commercial name : Dolby Digital
Codec ID : A_AC3
Duration : 1 h 47 min
Bit rate mode : Constant
Bit rate : 384 kb/s
Channel(s) : 6 channels
Channel layout : L R C LFE Ls Rs
Sampling rate : 48.0 kHz
Frame rate : 31.250 FPS (1536 SPF)
Compression mode : Lossy
Delay relative to video : -42 ms
Stream size : 294 MiB (7%)
Title : iTunes (ELEKTRI4KA)
Language : Russian
Service kind : Complete Main
Default : Yes
Forced : No
Menu
00:00:00.000 : en:Глава 1
00:08:02.166 : en:Глава 2
00:17:57.457 : en:Глава 3
00:27:28.457 : en:Глава 4
00:36:00.997 : en:Глава 5
00:44:25.622 : en:Глава 6
00:52:46.205 : en:Глава 7
01:01:03.538 : en:Глава 8
01:10:14.828 : en:Глава 9
01:18:53.119 : en:Глава 10
01:26:56.201 : en:Глава 11
01:36:17.367 : en:Глава 12
[Profile] [PM]
Display posts:    
Reply to topic

Current time is: 27-Nov 11:44

All times are UTC + 3



You cannot post new topics in this forum
You cannot reply to topics in this forum
You cannot edit your posts in this forum
You cannot delete your posts in this forum
You cannot vote in polls in this forum
You cannot attach files in this forum
You cannot download files in this forum