Аутло (2019) WEB-DLRip-AVC от Files-х | iTunes

Reply to topic
 
Author Message

Серый1779 ®

Gender: Male

Longevity: 2 years

Posts: 1298

Location: Украина

Post 21-Nov-2020 19:38

[Quote]

Аутло Год выпуска: 2019
Жанр: Драма
Выпущено: Россия, Irony Production
Режиссер: Ксения Ратушная
В ролях: Виктор Тарасенко, Елизавета Кашинцева, Евгений Шварцман, Глеб Калюжный, Сергей Епишев, Виталий Кудрявцев, Андрей Москвичёв, Евгений Даль, Николай Сахаров, Сергей Двойников
О фильме: Старшеклассник-гей и загадочная бунтарка пытаются добиться взаимности одного и того же парня. Генерал и танцовщица-трансгендер в 1980-х ставят на кон карьеру и жизнь, чтобы быть вместе.

Качество: WEB-DLRip-AVC
Видео: MPEG-4 AVC, ~ 1769 Кбит/с, 1024x432, 25 кадр/с
Аудио: AC3, 48 kHz, 6 ch, ~384.00 kbps
Продолжительность: 01:35:39
Не требуется [Русский] | iTunes
Субтитры: Нет

Скриншоты



MediaInfo

General
Unique ID : 202834055189554678471784907690377875867 (0x98986B062F0675FBB4A249B4C92E119B)
Complete name : F:\AUTLO.(2019).WEB-DLRip.(AVC).by.Серый1779.Files-x.mkv
Format : Matroska
Format version : Version 2
File size : 1.45 GiB
Duration : 1 h 35 min
Overall bit rate : 2 176 kb/s
Encoded date : UTC 2020-11-21 08:36:24
Writing application : mkvmerge v7.8.0 ('River Man') 32bit built on Apr 3 2015 12:11:22
Writing library : libebml v1.3.1 + libmatroska v1.4.2
Video
ID : 1
Format : AVC
Format/Info : Advanced Video Codec
Format profile : High@L4.1
Format settings : CABAC / 10 Ref Frames
Format settings, CABAC : Yes
Format settings, RefFrames : 10 frames
Codec ID : V_MPEG4/ISO/AVC
Duration : 1 h 35 min
Bit rate : 1 796 kb/s
Width : 1 024 pixels
Height : 432 pixels
Display aspect ratio : 2.40:1
Frame rate mode : Constant
Frame rate : 25.000 FPS
Color space : YUV
Chroma subsampling : 4:2:0
Bit depth : 8 bits
Scan type : Progressive
Bits/(Pixel*Frame) : 0.162
Stream size : 1.17 GiB (80%)
Writing library : x264 core 146 r2538 121396c
Encoding settings : cabac=1 / ref=10 / deblock=1:-2:-1 / analyse=0x3:0x133 / me=umh / subme=11 / psy=1 / psy_rd=1.00:0.08 / mixed_ref=1 / me_range=32 / chroma_me=1 / trellis=2 / 8x8dct=1 / cqm=0 / deadzone=21,11 / fast_pskip=0 / chroma_qp_offset=-3 / threads=18 / lookahead_threads=3 / sliced_threads=0 / nr=0 / decimate=1 / interlaced=0 / bluray_compat=0 / constrained_intra=0 / bframes=11 / b_pyramid=2 / b_adapt=2 / b_bias=0 / direct=1 / weightb=1 / open_gop=0 / weightp=2 / keyint=250 / keyint_min=25 / scenecut=40 / intra_refresh=0 / rc=2pass / mbtree=0 / bitrate=1796 / ratetol=1.0 / qcomp=0.60 / qpmin=0 / qpmax=69 / qpstep=4 / cplxblur=20.0 / qblur=0.5 / ip_ratio=1.40 / pb_ratio=1.30 / aq=2:1.00
Default : Yes
Forced : No
Color range : Limited
Color primaries : BT.709
Transfer characteristics : BT.709
Matrix coefficients : BT.709
Audio
ID : 2
Format : AC-3
Format/Info : Audio Coding 3
Format settings, Endianness : Big
Codec ID : A_AC3
Duration : 1 h 35 min
Bit rate mode : Constant
Bit rate : 384 kb/s
Channel(s) : 6 channels
Channel positions : Front: L C R, Side: L R, LFE
Sampling rate : 48.0 kHz
Frame rate : 31.250 FPS (1536 SPF)
Bit depth : 16 bits
Compression mode : Lossy
Stream size : 263 MiB (18%)
Service kind : Complete Main
Default : Yes
Forced : No
Релиз от:

Release was prepared by RG Files-x

[Profile] [PM]
Display posts:    
Reply to topic

Current time is: 27-Nov 11:43

All times are UTC + 3



You cannot post new topics in this forum
You cannot reply to topics in this forum
You cannot edit your posts in this forum
You cannot delete your posts in this forum
You cannot vote in polls in this forum
You cannot attach files in this forum
You cannot download files in this forum