Песня года 2020 [1-2 части из 2] (2021) HDTVRip от Files-x

Reply to topic
 
Author Message

bond74 ®

Gender: Male

Longevity: 2 years 2 months

Posts: 1043

Post 05-Jan-2021 02:14

[Quote]

Песня года 2021 Год выпуска: 2021
Жанр: Развлекательный, тв-шоу, концерт
Выпущено: Россия
Режиссер: Ведущие: Лера Кудрявцева, Сергей Лазарев
О фильме: На телеканале "Россия" – главный концерт страны! Участвуют все звезды!Каждый год в первые дни нового года мы с радостью слышим позывные любимой программы: "Через годы, через расстояния, на любой дороге, в стороне любой Песне ты не скажешь "до свидания", Песня не прощается с тобой…"На сцене соберутся лучшие исполнители 2019 года, которые напомнят о самых ярких и счастливых минутах уходящего года.Концерт "Песня года" в Москве – это своеобразное подведение итогов. Каждый уходящий год – это отдельный музыкальный сезон, в котором были свои дебюты и свои провалы, взлеты и падения. На протяжении более сорока лет "Песня года" – единственный концерт, в котором за один вечер на одной сцене можно увидеть всех лучших представителей российского шоу-бизнеса.Будут все! Со своими главными и любимыми публикой хитами выступают: София Ротару, Филипп Киркоров, Ирина Аллегрова, Валерий Леонтьев, Светлана Лобода, Егор Крид, Димаш Кудайберген, Дима Билан, Полина Гагарина, Звонкий, Диана Арбенина, Лариса Долина, Владимир Пресняков, Валерий Меладзе, Ани Лорак, Ёлка, Кристина Орбакайте, Николай Басков, Сергей Лазарев, Игорь Николаев, "Руки вверх", "А-Студио", Александр Буйнов, Валерия, Жасмин, Ирина Дубцова, Юлиана Караулова, Юлия Михальчик, Лев Лещенко, Олег Газманов, Лолита, Леонид Агутин, Анжелика Варум, Таисия Повалий и многие другие.
Качество: HDTVRip
Видео: XviD, ~ 1849 Кбит/с, 720x400, 25 кадр/с
Аудио: AC3, 2 ch, 192 Кбит/с
Продолжительность: 2 х ~ 01:59:00
Перевод: Не требуется [Русский]
Cубтитры: Русские

Скриншоты

MediaInfo

General
Complete name : H:\fiiles x\Песня года.2021.HDTVRip-files-x\02. Песня года.2021.HDTVRip-files-x.avi
Format : AVI
Format/Info : Audio Video Interleave
File size : 1.59 GiB
Duration : 1h 51mn
Overall bit rate : 2 051 Kbps
Writing application : VirtualDubMod 1.5.10.3 | www.virtualdub-fr.org || (build 2550/release)
Writing library : VirtualDubMod build 2550/release
Video
ID : 0
Format : MPEG-4 Visual
Format profile : Advanced Simple@L5
Format settings, BVOP : 1
Format settings, QPel : No
Format settings, GMC : No warppoints
Format settings, Matrix : Custom
Codec ID : XVID
Codec ID/Hint : XviD
Duration : 1h 51mn
Bit rate : 1 849 Kbps
Width : 720 pixels
Height : 400 pixels
Display aspect ratio : 16:9
Frame rate : 25.000 fps
Color space : YUV
Chroma subsampling : 4:2:0
Bit depth : 8 bits
Scan type : Progressive
Compression mode : Lossy
Bits/(Pixel*Frame) : 0.257
Stream size : 1.44 GiB (90%)
Writing library : XviD 73
Audio
ID : 1
Format : AC-3
Format/Info : Audio Coding 3
Mode extension : CM (complete main)
Codec ID : 2000
Duration : 1h 51mn
Bit rate mode : Constant
Bit rate : 192 Kbps
Channel(s) : 2 channels
Channel positions : Front: L R
Sampling rate : 48.0 KHz
Bit depth : 16 bits
Compression mode : Lossy
Stream size : 153 MiB (9%)
Alignment : Split accross interleaves
Interleave, duration : 40 ms (1.00 video frame)
Interleave, preload duration : 500 ms
Релиз от:

Release was prepared by RG Files-x

[Profile] [PM]

Serega$

Gender: Male

Longevity: 5 months 20 days

Posts: 123

Location: Russia

Post 05-Jan-2021 04:54 (after 2 hours 39 minutes)

[Quote]

Как всегда соберутся все любители фанеры ag
[Profile] [PM]
Display posts:    
Reply to topic

Current time is: 27-Jan 19:55

All times are UTC + 3



You cannot post new topics in this forum
You cannot reply to topics in this forum
You cannot edit your posts in this forum
You cannot delete your posts in this forum
You cannot vote in polls in this forum
You cannot attach files in this forum
You cannot download files in this forum