На острие (2020) WEB-DLRip от GeneralFilm | iTunes

Reply to topic
 
Author Message

vsobbol ®

Gender: Male

Longevity: 2 years 5 months

Posts: 761

Location: Донецк

Post 08-Jan-2021 02:31

[Quote]

На острие
Год выпуска: 2020
Жанр: Драма, спорт
Выпущено: Россия, Кинокомпания «Телесто»
Режиссер: Эдуард Бордуков
В ролях: Светлана Ходченкова, Стася Милославская, Сергей Пускепалис, Алексей Барабаш, Евгений Сытый, Софья Эрнст, Хильда Кармен, Кирилл Дегтярь, Павел Колобков, Мария Киселева и др.
О фильме: Лучшая саблистка мира, Александра Покровская, знаменита, богата и счастлива. Чтобы войти в историю, ей остается сделать последний шаг – взять олимпийское золото. Но путь ей преграждает девятнадцатилетняя Кира Егорова, девушка из провинции, в одночасье покорившая Москву. Кира побеждает на всех соревнованиях и не сходит с обложек глянцевых журналов. Ее цель – занять место Покровской. Начинается отчаянная схватка не только на турнирах, но и в жизни. Обе одержимы, и, кажется, остановить их не может ничто. Весь мир, затаив дыхание, наблюдает за сверканием острых клинков. И все очевиднее: эта яростная борьба уже зашла слишком далеко...

Качество: WEB-DLRip
Видео: XviD build 73, 720x304 (2.35:1), 24.000 fps, 1438 Kbps (0.274 bit/pixel)
Аудио: 48.0 kHz, AC3, 6 ch, 384 kbps
Продолжительность: 01:53:49
Перевод: Не требуется [Русский]
Cубтитры: нет

Скриншоты

MediaInfo

General
Complete name : D:\Razdachi\Na.Ostrie.2020.WEB-DLRip.GeneralFilm.avi
Format : AVI
Format/Info : Audio Video Interleave
File size : 1.46 GiB
Duration : 1 h 53 min
Overall bit rate : 1 832 kb/s
Writing application : VirtualDubMod 1.5.10.3 | www.virtualdub-fr.org || (build 2550/release)
Writing library : VirtualDubMod build 2550/release
Video
ID : 0
Format : MPEG-4 Visual
Format profile : Advanced Simple@L5
Format settings : BVOP1 / Custom Matrix
Format settings, BVOP : 1
Format settings, QPel : No
Format settings, GMC : No warppoints
Format settings, Matrix : Custom
Codec ID : XVID
Codec ID/Hint : XviD
Duration : 1 h 53 min
Bit rate : 1 438 kb/s
Width : 720 pixels
Height : 304 pixels
Display aspect ratio : 2.35:1
Frame rate : 24.000 FPS
Color space : YUV
Chroma subsampling : 4:2:0
Bit depth : 8 bits
Scan type : Progressive
Compression mode : Lossy
Bits/(Pixel*Frame) : 0.274
Stream size : 1.14 GiB (79%)
Writing library : XviD 73
Audio
ID : 1
Format : AC-3
Format/Info : Audio Coding 3
Commercial name : Dolby Digital
Codec ID : 2000
Duration : 1 h 53 min
Bit rate mode : Constant
Bit rate : 384 kb/s
Channel(s) : 6 channels
Channel layout : L R C LFE Ls Rs
Sampling rate : 48.0 kHz
Frame rate : 31.250 FPS (1536 SPF)
Compression mode : Lossy
Stream size : 313 MiB (21%)
Alignment : Split across interleaves
Interleave, duration : 42 ms (1.00 video frame)
Interleave, preload duratio : 500 ms
Service kind : Complete Main
Релиз от:
[Profile] [PM]
Display posts:    
Reply to topic

Current time is: 17-Apr 08:22

All times are UTC + 3



You cannot post new topics in this forum
You cannot reply to topics in this forum
You cannot edit your posts in this forum
You cannot delete your posts in this forum
You cannot vote in polls in this forum
You cannot attach files in this forum
You cannot download files in this forum