Люпен / Lupin [1 сезон: 1-5 из 5] 2021 WEB-DLRip | HDRezka Studio

Reply to topic
 
Author Message

Дэймон ®

Gender: Male

Longevity: 2 years 1 month

Posts: 8

Post 12-Jan-2021 23:44

[Quote]

Люпен Год выпуска: 2021
Жанр: Детектив
Выпущено: Франция, США, Netflix, Gaumont Television
Режиссер: Марсела Саид, Людовик Бернард, Луи Летерье
В ролях: Омар Си, Винсент Лондез, Ширин Бутелла, Николь Гарсия, Антуан Гуи, Клотильда Эсме, Херв Пьер, Людивин Санье, Кристиан Газио, Софьян Герраб
О фильме: В центре истории оказывается Ассан Диопа, чья жизнь перевернулась с ног на голову, когда умер его отец, обвинённый в преступлении, которого не совершал. Спустя четверть века Ассан, вдохновлённый романами про знаменитого джентльмена-грабителя Арсена Люпена, планирует отомстить за своего отца. И частью его плана становится похищение музейного сокровища — бесценного колье Марии-Антуанетты.
Качество: WEB-DLRip
Видео: 704x352 (2.000), 23.976 fps, XviD, 1600 Kbps
Аудио: AC3, 48.0 KHz, 2 ch, 192 kbps [Rus]
Продолжительность: 5 x ~ 00:48:00
Перевод / Озвучка: Профессиональный [многоголосый] HDRezka Studio

Скриншоты

MediaInfo

General
Complete name : Downloads\Lupin.S01.HDRezka Studio\Lupin.2021.s01e01.avi
Format : AVI
Format/Info : Audio Video Interleave
File size : 662 MiB
Duration : 46mn 19s
Overall bit rate : 1 997 Kbps
Writing application : VirtualDubMod 1.5.10.2 (build 2542/release)
Video #0
ID : 0
Format : MPEG-4 Visual
Format profile : Advanced Simple@L5
Format settings, BVOP : 1
Format settings, QPel : No
Format settings, GMC : No warppoints
Format settings, Matrix : Default (H.263)
Codec ID : XVID
Codec ID/Hint : XviD
Duration : 46mn 19s
Bit rate : 1 599 Kbps
Width : 704 pixels
Height : 352 pixels
Display aspect ratio : 2.000
Frame rate : 25.000 fps
Color space : YUV
Chroma subsampling : 4:2:0
Bit depth : 8 bits
Scan type : Progressive
Compression mode : Lossy
Bits/(Pixel*Frame) : 0.258
Stream size : 530 MiB (80%)
Writing library : XviD 69
Audio #1
ID : 1
Format : AC-3
Format/Info : Audio Coding 3
Mode extension : CM (complete main)
Format settings, Endianness : Big
Codec ID : 2000
Duration : 46mn 19s
Bit rate mode : Constant
Bit rate : 192 Kbps
Channel(s) : 2 channels
Channel positions : Front: L R
Sampling rate : 48.0 KHz
Bit depth : 16 bits
Compression mode : Lossy
Stream size : 63.6 MiB (10%)
Alignment : Split accross interleaves
Interleave, duration : 40 ms (1.00 video frame)
Interleave, preload duration : 500 ms
Audio #2
ID : 2
Format : AC-3
Format/Info : Audio Coding 3
Mode extension : CM (complete main)
Format settings, Endianness : Big
Codec ID : 2000
Duration : 46mn 19s
Bit rate mode : Constant
Bit rate : 192 Kbps
Channel(s) : 2 channels
Channel positions : Front: L R
Sampling rate : 48.0 KHz
Bit depth : 16 bits
Compression mode : Lossy
Stream size : 63.6 MiB (10%)
Alignment : Split accross interleaves
Interleave, duration : 40 ms (1.00 video frame)
Interleave, preload duration : 500 ms
[Profile] [PM]

Дэймон ®

Gender: Male

Longevity: 2 years 1 month

Posts: 8

Post 13-Jan-2021 07:13 (after 7 hours)

[Quote]

Исправил
[Profile] [PM]
Display posts:    
Reply to topic

Current time is: 27-Jan 19:05

All times are UTC + 3



You cannot post new topics in this forum
You cannot reply to topics in this forum
You cannot edit your posts in this forum
You cannot delete your posts in this forum
You cannot vote in polls in this forum
You cannot attach files in this forum
You cannot download files in this forum