Судьба: Сага клуба Винкс / Fate: The Winx Saga [1 сезон: 1-6 из 6] 2021 WEB-DLRip | Невафильм

Reply to topic
 
Author Message

Дэймон ®

Gender: Male

Longevity: 2 years 4 months

Posts: 8

Post 23-Jan-2021 09:34

[Quote]

Судьба: Сага клуба Винкс Год выпуска: 2021
Жанр: Фэнтези
Выпущено: Италия, Великобритания
Режиссер: Лиза Джеймс-Ларссон, Ханна Куинн, Стивен Вульфенден
В ролях: Эбигейл Ф. Коуэн, Дэнни Гриффин, Ханна ван дер Вестхойзен, Элиша Эпплбаум, Фредди Торп, Прешес Мустафа, Элиот Солт, Сэди Совералл, Тео Грэхэм, Джейк Дадмен
О фильме: Сериал основан на итальянском мультсериале "Клуб Винкс". История взросления пяти юных фей, воспитанниц школы волшебниц «Алфея» в Ином мире, где они овладевают своей магической силой. Девушек ждёт любовь и соперничество, а также смертельно опасные монстры.
Качество: WEB-DLRip
Видео: XviD, 1600 Кбит/с, 704х352
Аудио: Русский (AC3, 2 ch, 192 Кбит/с)
Продолжительность: 6 x ~ 01:00:00
Перевод / Озвучка: Дублированный
Cубтитры: нет

Скриншоты

MediaInfo

General
Complete name : Downloads\Fate.The.Winx.Saga.S01.Невафильм\Fate.The.Winx.Saga.S01E01.avi
Format : AVI
Format/Info : Audio Video Interleave
File size : 767 MiB
Duration : 53mn 42s
Overall bit rate : 1 997 Kbps
Movie name : Fate: The Winx Saga S01E01 - EniaHD
Writing application : VirtualDubMod 1.5.10.2 (build 2542/release)
Writing library : VirtualDubMod build 2542/release
Video #0
ID : 0
Format : MPEG-4 Visual
Format profile : Advanced Simple@L5
Format settings, BVOP : 1
Format settings, QPel : No
Format settings, GMC : No warppoints
Format settings, Matrix : Default (H.263)
Codec ID : XVID
Codec ID/Hint : XviD
Duration : 53mn 42s
Bit rate : 1 599 Kbps
Width : 704 pixels
Height : 352 pixels
Display aspect ratio : 2.000
Frame rate : 23.976 fps
Color space : YUV
Chroma subsampling : 4:2:0
Bit depth : 8 bits
Scan type : Progressive
Compression mode : Lossy
Bits/(Pixel*Frame) : 0.269
Stream size : 614 MiB (80%)
Writing library : XviD 69
Audio #1
ID : 1
Format : AC-3
Format/Info : Audio Coding 3
Mode extension : CM (complete main)
Format settings, Endianness : Big
Codec ID : 2000
Duration : 53mn 42s
Bit rate mode : Constant
Bit rate : 192 Kbps
Channel(s) : 2 channels
Channel positions : Front: L R
Sampling rate : 48.0 KHz
Bit depth : 16 bits
Compression mode : Lossy
Stream size : 73.8 MiB (10%)
Alignment : Split accross interleaves
Interleave, duration : 42 ms (1.00 video frame)
Interleave, preload duration : 500 ms
Audio #2
ID : 2
Format : AC-3
Format/Info : Audio Coding 3
Mode extension : CM (complete main)
Format settings, Endianness : Big
Codec ID : 2000
Duration : 53mn 42s
Bit rate mode : Constant
Bit rate : 192 Kbps
Channel(s) : 2 channels
Channel positions : Front: L R
Sampling rate : 48.0 KHz
Bit depth : 16 bits
Compression mode : Lossy
Stream size : 73.8 MiB (10%)
Alignment : Split accross interleaves
Interleave, duration : 42 ms (1.00 video frame)
Interleave, preload duration : 500 ms
Релиз от:
[Profile] [PM]
Display posts:    
Reply to topic

Current time is: 17-Apr 07:18

All times are UTC + 3



You cannot post new topics in this forum
You cannot reply to topics in this forum
You cannot edit your posts in this forum
You cannot delete your posts in this forum
You cannot vote in polls in this forum
You cannot attach files in this forum
You cannot download files in this forum