Красная зона [1-100 серии из 100] (2021) WEBRip от Files-x

Reply to topic
 
Author Message

bond74 ®

Gender: Male

Longevity: 2 years 10 months

Posts: 1277

Post 15-Mar-2021 18:18

[Quote]

Красная зона
Год выпуска: 2021
Жанр: Мелодрама
Выпущено: Россия, ВайТ Медиа
Режиссер: Игорь Ромащенко, Всеволод Аравин, Борис Рабей
В ролях: Константин Стрельников, Дана Агишева, Иван Гришанов, Александра Верхошанская, Кирилл Ковбас, Анна Роскошная, Николай Лазарев, Лариса Толмачёва, Александр Андриенко, Виктория Богатырёва, Сергей Клановский, Олег Евтеев, Евгений Сулес, Дарья Любшина-Луран, Ольга Верещагина, Татьяна Корсак, Александр Баринов, Владислав Котлярский, Михаил Богдасаров, Николай Алипа, Ирина Шеянова, Сергей Иванюк, Александра Полоник
О фильме: Красная зона – это не зона коронавируса, куда разрешён вход только врачам. Это зона, куда врач заходить не должен – зона равнодушия и апатии, зона коррупции и рвачества, трусости, жадности и подлости. На пути к этой зоне стоит главный герой – в прошлом подполковник медицинской службы ВС РФ, а ныне хирург Иван Андреевич Хлебников. Ему предстоит спасать не только пациентов, но и врачей от такой болезни, которую не вылечить ни вакциной, ни аппаратами ИВЛ. Иван Хлебников занимает должность и.о. главврача Первой ГКБ в городе, где он рос, учился в медицинском институте и проходил практику молодым интерном. Он чувствует ответственность за то, что здесь происходит. Дело в том, что при бывшем главвраче сложились коррупционные схемы – закупки у «своих», откаты и прочее. Главврач это покрывал, и принципиальные врачи начали увольняться, а на их места пришли люди случайные и равнодушные, но корыстные и преданные бывшему руководству. Так в больнице появились «медицинские менеджеры», а вслед за ними – платные услуги.
Качество: WEBRip
Видео: XviD, ~ 1600 Кбит/с, 720x400, 25 кадр/с
Аудио: AC3, 2 ch, 192 Кбит/с
Продолжительность: 98 x ~ 00:38:00
Перевод: Не требуется
Cубтитры: нет

Скриншоты


MediaInfo

General
Complete name : H:\fiiles x\Красная зона.2021.WEB-DLRip.Files-x\01. Красная зона.2021.WEB-DLRip.Files-x.avi
Format : AVI
Format/Info : Audio Video Interleave
File size : 483 MiB
Duration : 37mn 32s
Overall bit rate : 1 799 Kbps
Writing application : VirtualDubMod 1.5.10.3 | www.virtualdub-fr.org || (build 2550/release)
Writing library : VirtualDubMod build 2550/release
Video
ID : 0
Format : MPEG-4 Visual
Format profile : Advanced Simple@L5
Format settings, BVOP : 1
Format settings, QPel : No
Format settings, GMC : No warppoints
Format settings, Matrix : Custom
Codec ID : XVID
Codec ID/Hint : XviD
Duration : 37mn 32s
Bit rate : 1 598 Kbps
Width : 720 pixels
Height : 400 pixels
Display aspect ratio : 16:9
Frame rate : 25.000 fps
Color space : YUV
Chroma subsampling : 4:2:0
Bit depth : 8 bits
Scan type : Progressive
Compression mode : Lossy
Bits/(Pixel*Frame) : 0.222
Stream size : 429 MiB (89%)
Writing library : XviD 73
Audio
ID : 1
Format : AC-3
Format/Info : Audio Coding 3
Mode extension : CM (complete main)
Codec ID : 2000
Duration : 37mn 32s
Bit rate mode : Constant
Bit rate : 192 Kbps
Channel(s) : 2 channels
Channel positions : Front: L R
Sampling rate : 48.0 KHz
Bit depth : 16 bits
Compression mode : Lossy
Stream size : 51.6 MiB (11%)
Alignment : Split accross interleaves
Interleave, duration : 40 ms (1.00 video frame)
Interleave, preload duration : 500 ms

Раздача ведётся путём добавления новых серий

Внимание! Раздача ведётся путём добавления новых серий; при каждом добавлении создаётся новый торрент.
Чтобы начать докачку новой серии, пользователям необходимо сделать следующее:
1. Остановить скачивание;
2. Удалить старый торрент у себя из клиента (старые серии удалять не надо);
3. Скачать новый торрент и запустить его у себя в клиенте вместо старого, при этом указать клиенту путь в старую папку куда и должно происходить скачивание новых серий. Ваш клиент при этом должен произвести хеширование (проверку) старой папки и будет докачивать только те серии, которых у вас ещё нет. Старые серии при этом не удаляются, а продолжают раздаваться! Eсли вы уже удалили старые серии, то предотвратить повторную закачку старых серий можно, отжав галочку в соответствующих местах при запуске нового торрента.
Релиз от:

Release was prepared by RG Files-x

[Profile] [PM]
Display posts:    
Reply to topic

Current time is: 27-Sep 07:28

All times are UTC + 3



You cannot post new topics in this forum
You cannot reply to topics in this forum
You cannot edit your posts in this forum
You cannot delete your posts in this forum
You cannot vote in polls in this forum
You cannot attach files in this forum
You cannot download files in this forum