Дать дуба в округе Юба / Breaking News in Yuba County (2021) HDRip от Generalfilm | КПК | iTunes

Reply to topic
 
Author Message

sergey82 ®

Gender: Male

Longevity: 2 years 4 months

Posts: 206

Location: Украина

Post 06-Apr-2021 17:44

[Quote]

Дать дуба в округе Юба / Breaking News in Yuba County Год выпуска: 2021
Жанр: Триллер, драма, комедия, криминал
Выпущено: Великобритания, США, AGC Studios, Nine Stories Productions, Sarma Films, The Black List, Wyolah Films
Режиссер: Тейт Тейлор
В ролях: Мила Кунис, Эллисон Джэнни, Джульетт Льюис, Эллен Баркин, Крис Лоуэлл, Аквафина, Джимми Симпсон, Клифтон Коллинз мл., Мэттью Модайн, Реджина Холл
О фильме: Неприметная и тихая Сью Баттонс мечтает о крупице внимания и уважения, но не получает их ни на работе, ни дома. Однажды ее муж таинственным образом исчезает. Словно услышанная Вселенной, женщина вмиг оказывается в лучах славы. Благо сестра работает на телевидении. Вот только «скелет в шкафу» Сью поднимает на уши криминальную банду округа, вдобавок к дотошным копам. Но раз вкусив интереса к своей персоне и почувствовав собственную значимость, Сью уже не может остановиться. Дальнейшая череда недопониманий и идиотических поступков рождает эффект домино, который не щадит никого.
Качество: HDRip | КПК
Видео: MPEG-4 AVC, 640х264, 400 kb/s, 23.976 FPS
Аудио: AAC LC, 2 ch, 128 kb/s
Продолжительность: 01:36:24
Перевод / Озвучка: Дублированный iTunes]
Cубтитры: Hет

Скриншоты

MediaInfo

General
Complete name : D:\Изготовление рипа\Breaking.News.in.Yuba.County.2021.HDRip.KPK.by.sergey82.RG GeneralFilm.mp4
Format : MPEG-4
Format profile : Base Media
Codec ID : isom (isom/avc1/iso6)
File size : 367 MiB
Duration : 1 h 36 min
Overall bit rate mode : Variable
Overall bit rate : 532 kb/s
Encoded date : UTC 2021-04-06 13:48:04
Tagged date : UTC 2021-04-06 13:48:04
Video
ID : 1
Format : AVC
Format/Info : Advanced Video Codec
Format profile : High@L4.1
Format settings : CABAC / 4 Ref Frames
Format settings, CABAC : Yes
Format settings, Reference : 4 frames
Codec ID : avc1
Codec ID/Info : Advanced Video Coding
Duration : 1 h 36 min
Bit rate : 400 kb/s
Maximum bit rate : 1 893 kb/s
Width : 640 pixels
Height : 264 pixels
Display aspect ratio : 2.40:1
Frame rate mode : Constant
Frame rate : 23.976 (24000/1001) FPS
Color space : YUV
Chroma subsampling : 4:2:0
Bit depth : 8 bits
Scan type : Progressive
Bits/(Pixel*Frame) : 0.099
Stream size : 276 MiB (75%)
Title : 264@GPAC0.5.2-DEV-rev248-g39d5978-master
Writing library : x264 core 146 r2538 121396c
Encoding settings : cabac=1 / ref=3 / deblock=1:0:0 / analyse=0x3:0x113 / me=hex / subme=7 / psy=1 / psy_rd=1.00:0.00 / mixed_ref=1 / me_range=16 / chroma_me=1 / trellis=1 / 8x8dct=1 / cqm=0 / deadzone=21,11 / fast_pskip=1 / chroma_qp_offset=-2 / threads=6 / lookahead_threads=1 / sliced_threads=0 / nr=0 / decimate=1 / interlaced=0 / bluray_compat=0 / constrained_intra=0 / bframes=3 / b_pyramid=2 / b_adapt=1 / b_bias=0 / direct=1 / weightb=1 / open_gop=0 / weightp=2 / keyint=250 / keyint_min=23 / scenecut=40 / intra_refresh=0 / rc_lookahead=40 / rc=2pass / mbtree=1 / bitrate=400 / ratetol=1.0 / qcomp=0.60 / qpmin=0 / qpmax=69 / qpstep=4 / cplxblur=20.0 / qblur=0.5 / ip_ratio=1.40 / aq=1:1.00
Encoded date : UTC 2021-04-06 13:48:04
Tagged date : UTC 2021-04-06 13:48:10
Codec configuration box : avcC
Audio
ID : 2
Format : AAC LC
Format/Info : Advanced Audio Codec Low Complexity
Codec ID : mp4a-40-2
Duration : 1 h 36 min
Bit rate mode : Variable
Bit rate : 128 kb/s
Maximum bit rate : 134 kb/s
Channel(s) : 2 channels
Channel layout : L R
Sampling rate : 48.0 kHz
Frame rate : 46.875 FPS (1024 SPF)
Compression mode : Lossy
Stream size : 88.1 MiB (24%)
Encoded date : UTC 2021-04-06 13:26:29
Tagged date : UTC 2021-04-06 13:48:10
Релиз от:
[Profile] [PM]
Display posts:    
Reply to topic

Current time is: 17-Apr 08:50

All times are UTC + 3



You cannot post new topics in this forum
You cannot reply to topics in this forum
You cannot edit your posts in this forum
You cannot delete your posts in this forum
You cannot vote in polls in this forum
You cannot attach files in this forum
You cannot download files in this forum