По ту сторону смерти [2 сезон: 1-14 серии из 14] (2021) WEBRip 1080p

Reply to topic
 
Author Message

Nicodem ®

Gender: Male

Longevity: 3 years 5 months

Posts: 1160

Post 05-Nov-2021 18:26

[Quote]

По ту сторону смерти
Год выпуска: 2021
Жанр: Детектив, триллер, драма
Выпущено: Россия, Кинокомпания "ВайТ Медиа"
Режиссер: Сергей Чекалов
В ролях: Сергей Гармаш, Светлана Ходченкова, Андрей Шеламов, Сергей Петров (II), Алевтина Тукан, Андрей Кузичёв
О фильме: Продолжение остросюжетного детектива. В новом сезоне главные герои картины – следователь СК Глеб Точилин и сотрудник института мозга Юлия Дёмина – вновь окажутся втянуты в три мистические истории.

Качество: WEBRip 1080p
Видео: MPEG-4 AVC, ~ 4500 Кбит/с, 1920x688, 25 кадр/с
Аудио Русский, AC3, 2 ch, 192 Кбит/с
Продолжительность: 14 x ~ 00:51:40
Перевод: Не требуется
Cубтитры: нет

Скриншоты



MediaInfo

General
Unique ID : 198281817080322425304111714370215815911 (0x952BB05B5FA47D3B8762695359652AE7)
Complete name : C:Po.tu.storonu.smerti.s02e01.2021.WEB-DL.(1080p).Getty.mkv
Format : Matroska
File size : 1.68 GiB
Duration : 51mn 42s
Overall bit rate : 4 663 Kbps
Movie name : Po.tu.storonu.smerti.s02e01.2021.WEB-DL.(1080p).Getty
Encoded date : UTC 2021-11-03 21:04:12
Writing application : mkvmerge v7.8.0 ('River Man') 32bit built on Mar 27 2015 16:18:02
Writing library : libebml v1.3.1 + libmatroska v1.4.2
Video
ID : 1
Format : AVC
Format/Info : Advanced Video Codec
Format profile : High@L4.0
Format settings, CABAC : Yes
Format settings, ReFrames : 1 frame
Codec ID : V_MPEG4/ISO/AVC
Duration : 51mn 42s
Bit rate mode : Variable
Bit rate : 4 379 Kbps
Maximum bit rate : 4 500 Kbps
Width : 1 920 pixels
Height : 688 pixels
Display aspect ratio : 2.759
Frame rate : 25.000 fps
Color space : YUV
Chroma subsampling : 4:2:0
Bit depth : 8 bits
Scan type : Progressive
Bits/(Pixel*Frame) : 0.133
Stream size : 1.58 GiB (94%)
Audio
ID : 2
Format : AC-3
Format/Info : Audio Coding 3
Mode extension : CM (complete main)
Codec ID : A_AC3
Duration : 51mn 42s
Bit rate mode : Constant
Bit rate : 192 Kbps
Channel(s) : 2 channels
Channel positions : Front: L R
Sampling rate : 48.0 KHz
Bit depth : 16 bits
Compression mode : Lossy
Stream size : 71.0 MiB (4%)

Содержание

1-6 серии "Тень" часть с 1-6
7-10 серии "Оракул" часть с 1-4
11-14 серии "Седьмая жертва" часть с 1-4

Раздача ведётся путём добавления новых серий

Внимание! Раздача ведётся путём добавления новых серий; при каждом добавлении создаётся новый торрент.
Чтобы начать докачку новой серии, пользователям необходимо сделать следующее:
1. Остановить скачивание;
2. Удалить старый торрент у себя из клиента (старые серии удалять не надо);
3. Скачать новый торрент и запустить его у себя в клиенте вместо старого, при этом указать клиенту путь в старую папку куда и должно происходить скачивание новых серий. Ваш клиент при этом должен произвести хеширование (проверку) старой папки и будет докачивать только те серии, которых у вас ещё нет. Старые серии при этом не удаляются, а продолжают раздаваться! Eсли вы уже удалили старые серии, то предотвратить повторную закачку старых серий можно, отжав галочку в соответствующих местах при запуске нового торрента.


Last edited by Nicodem on 2021-11-13 23:02; edited 1 time in total
[Profile] [PM]

Otkritka

Gender: Female

Longevity: 6 months 19 days

Posts: 7

Post 12-Nov-2021 03:55 (after 6 days)

[Quote]

Здравствуйте !!! КПК когда ждать ?
[Profile] [PM]

xsgudu000

Gender: Male

Longevity: 29 days

Posts: 1

Post 18-Apr-2022 08:04 (after 5 months 6 days)

[Quote]

Привет, русские, кажется, не очень нуждаются в субтитрах, и многие телепередачи и фильмы не имеют их, что создает много проблем для иностранцев, которые не знают русского языка, но любят русские фильмы и ТВ.Где найти русские субтитры к этому сериалу? Мне нужно использовать программное обеспечение для перевода на китайский язык.
[Profile] [PM]
Display posts:    
Reply to topic

Current time is: 17-May 13:18

All times are UTC + 3



You cannot post new topics in this forum
You cannot reply to topics in this forum
You cannot edit your posts in this forum
You cannot delete your posts in this forum
You cannot vote in polls in this forum
You cannot attach files in this forum
You cannot download files in this forum