Анна Герман. Страх нищеты (2020) WEBRip-AVC

Reply to topic
 
Author Message

Brux ®

Gender: Male

Longevity: 3 years 11 months

Posts: 31

Post 10-Dec-2021 23:52

[Quote]

Анна Герман. Страх нищеты Год выпуска: 2020
Жанр: Документальный, биография, хроника
Выпущено: Россия, ООО "Титан"
В ролях: Анна Герман (I)
О фильме: Она пела нежным голосом песни о любви и в глазах советских людей была заграничной феей. А на самом деле жизнь Анны Герман была тяжела и прозаична. Певица содержала большую семью и больше всего на свете боялась остаться без денег. Страх нищеты зародился в несчастном детстве и преследовал её до гроба. Ради заработка она выходила на сцену даже со смертельной формой саркомы, испытывая жуткие боли
Качество: WEBRip-AVC
Видео: MPEG-4 AVC, 1770 Кбит/с, 1024x576
Аудио: AC3, 2 ch, 192 Кбит/с
Продолжительность: 00:39:12
Перевод / Озвучка: Не требуется [Русский]
Cубтитры: нет

Скриншоты



MediaInfo

General
Unique ID : 186384035056565943261157774023174513247 (0x8C384269D0C3337BA82EE519EB6DE25F)
Complete name : C:\Анна Герман. Страх нищеты.mkv
Format : Matroska
Format version : Version 2
File size : 550 MiB
Duration : 39mn 11s
Overall bit rate : 1 963 Kbps
Encoded date : UTC 2021-12-10 18:22:34
Writing application : mkvmerge v7.6.0 ('Garden of Dreams') 32bit built on Feb 11 2015 00:18:47
Writing library : libebml v1.3.1 + libmatroska v1.4.2
Video
ID : 1
Format : AVC
Format/Info : Advanced Video Codec
Format profile : High@L4.1
Format settings, CABAC : Yes
Format settings, ReFrames : 6 frames
Codec ID : V_MPEG4/ISO/AVC
Duration : 39mn 11s
Bit rate : 1 770 Kbps
Width : 1 024 pixels
Height : 576 pixels
Display aspect ratio : 16:9
Frame rate mode : Constant
Frame rate : 25.000 fps
Color space : YUV
Chroma subsampling : 4:2:0
Bit depth : 8 bits
Scan type : Progressive
Bits/(Pixel*Frame) : 0.120
Stream size : 486 MiB (88%)
Writing library : x264 core 146 r2538 121396c
Encoding settings : cabac=1 / ref=6 / deblock=1:-2:-1 / analyse=0x3:0x113 / me=umh / subme=10 / psy=1 / psy_rd=0.00:0.15 / mixed_ref=1 / me_range=32 / chroma_me=1 / trellis=2 / 8x8dct=1 / cqm=0 / deadzone=21,11 / fast_pskip=0 / chroma_qp_offset=-3 / threads=6 / lookahead_threads=1 / sliced_threads=0 / nr=0 / decimate=0 / interlaced=0 / bluray_compat=0 / constrained_intra=0 / bframes=6 / b_pyramid=2 / b_adapt=2 / b_bias=0 / direct=1 / weightb=1 / open_gop=0 / weightp=2 / keyint=250 / keyint_min=25 / scenecut=40 / intra_refresh=0 / rc_lookahead=40 / rc=2pass / mbtree=0 / bitrate=1770 / ratetol=1.0 / qcomp=0.70 / qpmin=0 / qpmax=69 / qpstep=4 / cplxblur=20.0 / qblur=0.5 / vbv_maxrate=62500 / vbv_bufsize=78125 / nal_hrd=none / filler=0 / ip_ratio=1.40 / pb_ratio=1.30 / aq=1:1.00
Language : Russian
Default : Yes
Forced : Yes
Audio
ID : 2
Format : AC-3
Format/Info : Audio Coding 3
Mode extension : CM (complete main)
Format settings, Endianness : Big
Codec ID : A_AC3
Duration : 39mn 11s
Bit rate mode : Constant
Bit rate : 192 Kbps
Channel(s) : 2 channels
Channel positions : Front: L R
Sampling rate : 48.0 KHz
Bit depth : 16 bits
Compression mode : Lossy
Stream size : 53.8 MiB (10%)
Language : Russian
Default : Yes
Forced : Yes
[Profile] [PM]
Display posts:    
Reply to topic

Current time is: 27-Nov 04:39

All times are UTC + 3



You cannot post new topics in this forum
You cannot reply to topics in this forum
You cannot edit your posts in this forum
You cannot delete your posts in this forum
You cannot vote in polls in this forum
You cannot attach files in this forum
You cannot download files in this forum