Холостяк - Россия [9 сезон: 1-9 выпуски] (2022) WEBRip 1080p от Files-x

Reply to topic
 
Author Message

papa1951deda ®

Gender: Male

Longevity: 3 years 5 months

Posts: 1342

Location: Казахстан

Post 11-Apr-2022 18:56

[Quote]

Холостяк - Россия Год выпуска: 2022
Жанр: Реалити-шоу
В ролях: Александр Гранков, Димаш Адилет
Ведущий: Михаил Белянин
Описание: Каждый сезон шоу «Холостяк» – это большое событие! За восемь сезонов существования проект вышел за рамки простого романтического реалити. «Холостяк» – это настоящее приключение для всех, кто хочет окунуться в сказку и, возможно, встретить свою вторую половину. Герои проекта – молодые, красивые, успешные и амбициозные личности, готовые стать участниками романтического реалити-шоу, изменить свою жизнь и открыть себя заново
Без рекламы

Качество: WEBRip 1080p
Видео: XviD, ~ 1600 Кбит/с, 720х400, 25 кадр/с
Аудио: AC3, 2 ch, 192 Кбит/с
Продолжительность: 5 х ~ 01:11:00
Перевод: Не требуется
Субтитры: Нет

Скриншоты



MediaInfo

General
Unique ID : 211163181505989370911280861076029214260 (0x9EDC8CA831D273E98F65154F71108E34)
Complete name : E:\Холостяк.s09.2022. WEB-DL 1080p.Files-x\03. Холостяк.s09.2022. WEB-DL 1080p.Files-x.mkv
Format : Matroska
Format version : Version 2
File size : 3.09 GiB
Duration : 1 h 18 min
Overall bit rate mode : Variable
Overall bit rate : 5 661 kb/s
Encoded date : UTC 2022-04-10 17:58:27
Writing application : mkvmerge v7.8.0 ('River Man') 32bit built on Apr 3 2015 12:11:22
Writing library : libebml v1.3.1 + libmatroska v1.4.2
Video
ID : 1
Format : AVC
Format/Info : Advanced Video Codec
Format profile : High@L4.1
Format settings : CABAC / 1 Ref Frames
Format settings, CABAC : Yes
Format settings, Reference : 1 frame
Format settings, GOP : M=1, N=50
Codec ID : V_MPEG4/ISO/AVC
Duration : 1 h 18 min
Bit rate mode : Variable
Bit rate : 5 356 kb/s
Maximum bit rate : 5 500 kb/s
Width : 1 920 pixels
Height : 1 080 pixels
Display aspect ratio : 16:9
Frame rate mode : Constant
Frame rate : 25.000 FPS
Color space : YUV
Chroma subsampling : 4:2:0
Bit depth : 8 bits
Scan type : Progressive
Bits/(Pixel*Frame) : 0.103
Stream size : 2.93 GiB (95%)
Default : Yes
Forced : No
Color range : Limited
Color primaries : BT.709
Transfer characteristics : BT.709
Audio
ID : 2
Format : AC-3
Format/Info : Audio Coding 3
Commercial name : Dolby Digital
Codec ID : A_AC3
Duration : 1 h 18 min
Bit rate mode : Constant
Bit rate : 192 kb/s
Channel(s) : 2 channels
Channel layout : L R
Sampling rate : 44.1 kHz
Frame rate : 28.711 FPS (1536 SPF)
Compression mode : Lossy
Stream size : 107 MiB (3%)
Service kind : Complete Main
Default : Yes
Forced : No

Внимание! Раздача ведётся путём добавления новых серий

Раздача ведётся путём добавления новых серий, при каждом добавлении создаётся новый торрент. Чтобы начать докачку новой серии, пользователям необходимо сделать следующее:
- Остановить скачивание.
- Удалить старый торрент у себя из клиента (старые серии удалять не надо).
- Скачать новый торрент и запустить его у себя в клиенте вместо старого, при этом указать клиенту путь в старую папку куда и должно происходить скачивание новых серий.
Ваш клиент при этом должен произвести хеширование (проверку) старой папки (если не производит сам - помогите ему сделать это), и будет докачивать только те серии которых у вас ещё нет. Старые серии при этом не удаляются, а продолжают раздаваться!
Релиз от:

Release was prepared by RG Files-x

[Profile] [PM]
Display posts:    
Reply to topic

Current time is: 17-May 12:58

All times are UTC + 3



You cannot post new topics in this forum
You cannot reply to topics in this forum
You cannot edit your posts in this forum
You cannot delete your posts in this forum
You cannot vote in polls in this forum
You cannot attach files in this forum
You cannot download files in this forum