Лето 1941 года (2022) WEB-DLRip от Files-x

Reply to topic
 
Author Message

Серый1779 ®

Gender: Male

Longevity: 3 years 6 months

Posts: 2399

Location: Украина

Post 09-May-2022 15:03

[Quote]

Лето 1941 года
Год выпуска: 2022
Жанр: Военный, боевик
Выпущено: Казахстан, Кинокомпания «Медетфильм»
Режиссер: Бекболат Шекеров
В ролях: Азамат Нигманов, Андрей Олефиренко, Шарифбек Закиров, Алихан Лепесбаев, Андрей Сенькин, Елизавета Шукова, Макпал Касенова, Александр Брухацкий, Валентина Гарцуева, Арсений Врагов
Описание: Начало Великой Отечественной войны. Лейтенант Ади Шарипов вместе со своим взводом прикрывают отход штаба полка и остаются в окружении, в тылу врага. Враг загоняет отряд в болото. Страх перед неизвестностью, уныние и сомнения преследуют бойцов, пока они не осознают, что ожидание и бездействие погубят отряд быстрее, чем пули врага.

Качество: WEB-DLRip
Видео: XviD, ~ 1462 Кбит/с, 720x304, 24 кадр/с
Аудио: AC3, 6 ch, 384 Кбит/с
Продолжительность: 01:52:55
Перевод: Не требуется | IVI
Субтитры: Нет

Скриншоты



MediaInfo

General
Complete name : F:\Лето 1941 года.(2022).WEB-DLRip.by.Серый1779.Files-x.avi
Format : AVI
Format/Info : Audio Video Interleave
File size : 1.46 GiB
Duration : 1 h 52 min
Overall bit rate : 1 855 kb/s
Writing application : VirtualDubMod 1.5.10.3 | www.virtualdub-fr.org || (build 2550/release)
Writing library : VirtualDubMod build 2550/release
Video
ID : 0
Format : MPEG-4 Visual
Format profile : Advanced Simple@L5
Format settings : BVOP1 / Custom Matrix
Format settings, BVOP : 1
Format settings, QPel : No
Format settings, GMC : No warppoints
Format settings, Matrix : Custom
Codec ID : XVID
Codec ID/Hint : XviD
Duration : 1 h 52 min
Bit rate : 1 461 kb/s
Width : 720 pixels
Height : 304 pixels
Display aspect ratio : 2.35:1
Frame rate : 24.000 FPS
Color space : YUV
Chroma subsampling : 4:2:0
Bit depth : 8 bits
Scan type : Progressive
Compression mode : Lossy
Bits/(Pixel*Frame) : 0.278
Stream size : 1.15 GiB (79%)
Writing library : XviD 73
Audio
ID : 1
Format : AC-3
Format/Info : Audio Coding 3
Format settings, Endianness : Big
Codec ID : 2000
Duration : 1 h 52 min
Bit rate mode : Constant
Bit rate : 384 kb/s
Channel(s) : 6 channels
Channel positions : Front: L C R, Side: L R, LFE
Sampling rate : 48.0 kHz
Frame rate : 31.250 FPS (1536 SPF)
Bit depth : 16 bits
Compression mode : Lossy
Stream size : 310 MiB (21%)
Alignment : Split accross interleaves
Interleave, duration : 42 ms (1.00 video frame)
Interleave, preload duration : 500 ms
Service kind : Complete Main
Релиз от:

Release was prepared by RG Files-x

[Profile] [PM]
Display posts:    
Reply to topic

Current time is: 17-May 13:19

All times are UTC + 3



You cannot post new topics in this forum
You cannot reply to topics in this forum
You cannot edit your posts in this forum
You cannot delete your posts in this forum
You cannot vote in polls in this forum
You cannot attach files in this forum
You cannot download files in this forum