Динозавр [3 сезон: 1-10 серии из 10] (2022) HDTV 1080p от R.G.Generalfilm

Reply to topic
 
Author Message

White Smoke ®

Gender: Male

Longevity: 3 years 6 months

Posts: 212

Post 10-May-2022 00:08

[Quote]

Динозавр 3 Год выпуска: 2022
Жанр: Криминал, комедия
Выпущено: Россия Студия «Небо»
Режиссер: Павел Игнатов
В ролях: Андрей Смирнов (I), Александр Панкратов-Чёрный, Евгений Миллер, Анна Васильева-Абрамович, Вольфганг Черни, Галина Петрова (I), Кирилл Каганович, Кристина Борейко, Илья Сологуб, Глеб Шевнин, Зоя Мансурова, Никита Карпинский, Кирилл Буханцев, Роман Мадянов, Арсений Сергеев, Елена Симонова, Олег Евтеев
О фильме: Бабушкин и Басня станут внештатными сотрудниками СК и, используя свои криминальные связи, вместе с внучкой Бабушкина Полиной начнут искать преступников, совершивших настоящее «ограбление века» - воры, воспользовавшись старинным подземным ходом 18 века, прорыли туннель, вскрыли пол хранилища крупного банка и обчистили сейфы клиентов. Сын Бабушкина, Христофоров, приглашает отца для консультации по делу ограбления. Тот не имеет никакого представления, кто это сделал. Появился самородок, который переплюнул «Бриллианта» и поставил рекорд по вскрытию. В ходе расследования выясняется, что к проведению ограбления причастна молодёжная банда. Чтобы найти преступника, Полине придётся внедриться в банду и влюбить в себя Главаря.
Качество: HDTV 1080p
Видео: MPEG-4 AVC,1920x1080 (16:9), 25.000 fps, 7 051 kb/s (0.136 bit/pixel)
Аудио: AC3 / 2 ch / 48 kHz / 192 kbps
Продолжительность: ~ 00:48:18
Перевод: Не требуется
Cубтитры: нет

Скриншоты

MediaInfo

General
Unique ID : 180190702888964921418244272830889288835 (0x878F778FE4F69E00A62AA62C34576483)
Complete name : D:\Dinozavr.S03 2022 HDTV 1080p.R.G.Generalfilm\Dinozavr.s03.e01.2022.HDTV 1080p.by.White Smoke.R.G.Generalfilm.mkv
Format : Matroska
Format version : Version 4
File size : 2.44 GiB
Duration : 48 min 18 s
Overall bit rate mode : Constant
Overall bit rate : 7 219 kb/s
Movie name : Dinozavr.s03.e01.2022.HDTV 1080p.by.White Smoke.R.G.Generalfilm.mkv
Encoded date : UTC 2022-05-08 01:12:53
Writing application : mkvmerge v6.8.0 ('Theme for Great Cities') 64bit built on Mar 2 2014 21:34:26
Writing library : libebml v1.3.0 + libmatroska v1.4.1
Cover : Yes
Attachments : cover.jpg
Video
ID : 1
Format : AVC
Format/Info : Advanced Video Codec
Format profile : High@L4.1
Format settings : CABAC / 3 Ref Frames
Format settings, CABAC : Yes
Format settings, Reference frames : 3 frames
Codec ID : V_MPEG4/ISO/AVC
Duration : 48 min 18 s
Bit rate mode : Constant
Bit rate : 7 051 kb/s
Width : 1 920 pixels
Height : 1 080 pixels
Display aspect ratio : 16:9
Frame rate mode : Constant
Frame rate : 25.000 FPS
Standard : PAL
Color space : YUV
Chroma subsampling : 4:2:0
Bit depth : 8 bits
Scan type : Progressive
Bits/(Pixel*Frame) : 0.136
Stream size : 2.32 GiB (95%)
Default : Yes
Forced : No
Color range : Limited
Color primaries : BT.709
Transfer characteristics : BT.709
Matrix coefficients : BT.709
Audio
ID : 2
Format : AC-3
Format/Info : Audio Coding 3
Commercial name : Dolby Digital
Codec ID : A_AC3
Duration : 48 min 18 s
Bit rate mode : Constant
Bit rate : 192 kb/s
Channel(s) : 2 channels
Channel layout : L R
Sampling rate : 48.0 kHz
Frame rate : 31.250 FPS (1536 SPF)
Compression mode : Lossy
Stream size : 66.3 MiB (3%)
Service kind : Complete Main
Default : Yes
Forced : No
Огромное спасибо пользователю HardwareMining за помощь в подготовке данной раздачи Релиз от:
[Profile] [PM]
Display posts:    
Reply to topic

Current time is: 17-May 14:43

All times are UTC + 3



You cannot post new topics in this forum
You cannot reply to topics in this forum
You cannot edit your posts in this forum
You cannot delete your posts in this forum
You cannot vote in polls in this forum
You cannot attach files in this forum
You cannot download files in this forum