Лука / Luca (2021) BDRip-AVC | iTunes

Reply to topic
 
Author Message

HardwareMining ®

Gender: Male

Longevity: 2 years 7 months

Posts: 139

Post 10-May-2022 18:31

[Quote]

Лука / Luca
Год выпуска: 2021
Жанр: мультфильм, фэнтези, комедия, приключения, семейный
Выпущено: США | Pixar Animation Studios, Walt Disney Pictures
Режиссер: Энрико Касароса
В ролях: Джейкоб Тремблей, Джек Дилан Грейзер, Эмма Берман, Саверио Раймондо, Майя Рудольф, Джим Гэффиган, Сэнди Мартин, Саша Барон Коэн, Марко Барричелли, Питер Сон
О фильме:
Незабываемые каникулы, в которых есть место и домашней пасте, и мороженому, и бесконечным поездкам на мопеде, мальчик Лука проводит в красивом приморском городке на итальянской Ривьере. Ни одно приключение Луки не обходится без участия его нового лучшего друга, и беззаботность отдыха омрачает только лишь тот факт, что на самом деле в облике мальчика скрывается морской монстр из глубин лагуны, на берегу которой стоит городок.

Качество: BDRip-AVC
Видео: AVC, 1024x552 (1,85:1), 23,976 fps, 2913 Kbit/s (0.215 bit/pixel)
Аудио: русский, AC3, 5.1, 48 kHz, 384 kbps CBR
Продолжительность: 01:35:15
Перевод: Дублированный | iTunes
Субтитры: Русские | Forced

Скриншоты

MediaInfo

Общее
Уникальный идентификатор : 210625204945434299018068550549933657639 (0x9E74F05D5EAF5661ABD479FDCDDC0E27)
Полное имя : G:\GF\Luca.2021.BDRip.AVC.Rip.by.HardwareMining.R.G.Generalfilm.mkv
Формат : Matroska
Версия формата : Version 4
Размер файла : 2,20 Гбайт
Продолжительность : 1 ч. 35 м.
Общий поток : 3 301 Кбит/сек
Название фильма : Luca.2021.BDRip.AVC.Rip.by.HardwareMining.R.G.Generalfilm
Дата кодирования : UTC 2022-05-10 15:22:18
Программа кодирования : mkvmerge v6.8.0 ('Theme for Great Cities') 64bit built on Mar 2 2014 21:34:26
Библиотека кодирования : libebml v1.3.0 + libmatroska v1.4.1
Обложка : Yes
Attachments : cover.png
Видео
Идентификатор : 1
Формат : AVC
Формат/Информация : Advanced Video Codec
Профиль формата : High@L4.1
Настройки формата : CABAC / 9 Ref Frames
Параметр CABAC формата : Да
Параметр RefFrames формата : 9 кадров
Идентификатор кодека : V_MPEG4/ISO/AVC
Продолжительность : 1 ч. 35 м.
Битрейт : 2 913 Кбит/сек
Ширина : 1 024 пикселя
Высота : 552 пикселя
Соотношение сторон : 1,85:1
Режим частоты кадров : Постоянный
Частота кадров : 23,976 (24000/1001) кадра/сек
Цветовое пространство : YUV
Субдискретизация насыщенности : 4:2:0
Битовая глубина : 8 бит
Тип развёртки : Прогрессивная
Бит/(Пиксели*Кадры) : 0.215
Размер потока : 1,90 Гбайт (86%)
Библиотека кодирования : x264 core 148 r2638 7599210
Настройки программы : cabac=1 / ref=9 / deblock=1:-2:-1 / analyse=0x3:0x113 / me=umh / subme=10 / psy=1 / psy_rd=0.00:0.15 / mixed_ref=1 / me_range=32 / chroma_me=1 / trellis=2 / 8x8dct=1 / cqm=0 / deadzone=21,11 / fast_pskip=0 / chroma_qp_offset=-3 / threads=6 / lookahead_threads=1 / sliced_threads=0 / nr=0 / decimate=0 / interlaced=0 / bluray_compat=0 / constrained_intra=0 / bframes=10 / b_pyramid=2 / b_adapt=2 / b_bias=0 / direct=1 / weightb=1 / open_gop=0 / weightp=2 / keyint=240 / keyint_min=23 / scenecut=40 / intra_refresh=0 / rc_lookahead=40 / rc=2pass / mbtree=0 / bitrate=2913 / ratetol=1.0 / qcomp=0.65 / qpmin=0 / qpmax=69 / qpstep=4 / cplxblur=20.0 / qblur=0.5 / vbv_maxrate=50000 / vbv_bufsize=65500 / nal_hrd=none / filler=0 / ip_ratio=1.40 / pb_ratio=1.30 / aq=1:2.00
Язык : English
Default : Да
Forced : Нет
Аудио
Идентификатор : 2
Формат : AC-3
Формат/Информация : Audio Coding 3
Коммерческое название : Dolby Digital
Идентификатор кодека : A_AC3
Продолжительность : 1 ч. 35 м.
Вид битрейта : Постоянный
Битрейт : 384 Кбит/сек
Каналы : 6 каналов
Channel layout : L R C LFE Ls Rs
Частота : 48,0 КГц
Частота кадров : 31,250 кадров/сек (1536 SPF)
Метод сжатия : С потерями
Размер потока : 262 Мбайт (12%)
Заголовок : iTunes
Язык : Russian
Service kind : Complete Main
Default : Да
Forced : Да
Текст
Идентификатор : 3
Формат : UTF-8
Идентификатор кодека : S_TEXT/UTF8
Идентификатор кодека/Информация : UTF-8 Plain Text
Заголовок : Forced
Язык : Russian
Default : Да
Forced : Да
Меню
00:00:00.000 : en:Prologue
00:02:27.898 : en:Meet Luca
00:06:27.220 : en:Family Lunch
00:08:29.884 : en:Meet Alberto
00:11:19.512 : en:World Above
00:14:35.291 : en:Alberto's Hideout
00:16:30.197 : en:Paranoid
00:17:07.735 : en:Best Friends
00:21:19.486 : en:Rooftop
00:23:31.994 : en:Busted
00:26:01.393 : en:Running Away
00:28:11.815 : en:Vespatown
00:32:55.515 : en:Meet Giulia
00:35:39.971 : en:Bike Test
00:37:29.372 : en:Massimo Dinner
00:41:38.204 : en:Parents Arrive
00:42:25.876 : en:Massimo Chores
00:45:04.118 : en:Wrong Kid
00:46:06.680 : en:Signing Up
00:48:53.639 : en:Close Call
00:51:00.098 : en:Soccer Mom
00:52:04.746 : en:Telescope
00:54:33.562 : en:Saturn Dream
00:56:18.834 : en:Vespa Gazing
00:58:30.340 : en:Race Training
01:00:07.520 : en:Spotted
01:00:43.598 : en:Wipeout
01:02:10.059 : en:Splash
01:04:51.929 : en:Without Alberto
01:06:49.088 : en:Reconciliation
01:09:33.836 : en:Race Begins
01:13:19.978 : en:Bike Race
01:16:47.477 : en:Finish Line
01:19:33.476 : en:Giulia Packing
01:20:53.723 : en:Parting Ways
01:24:34.944 : en:Credits
01:33:41.532 : en:In The Deep
Релиз от:
[Profile] [PM]
Display posts:    
Reply to topic

Current time is: 17-May 15:00

All times are UTC + 3



You cannot post new topics in this forum
You cannot reply to topics in this forum
You cannot edit your posts in this forum
You cannot delete your posts in this forum
You cannot vote in polls in this forum
You cannot attach files in this forum
You cannot download files in this forum