Махнемся телами / Le sens de la famille (2020) BDRip-AVC | iTunes

Reply to topic
 
Author Message

HardwareMining ®

Gender: Male

Longevity: 2 years 7 months

Posts: 139

Post 13-May-2022 19:07

[Quote]

Махнемся телами / Le sens de la famille
«Не тех людей назвали свингерами» Год выпуска: 2020
Жанр: комедия, мелодрама
Выпущено: Франция | Canal+ [fr], Ciné, Cinéventure 5, Cofimage 31, Entourage Pictures, France 2 Cinéma, France Télévision, Gaumont, Karé Productions, M6, M6 Films, SG Image 2018, uFund, uMedia Family
Режиссер: Жан-Патрик Бенес
В ролях: Франк Дюбоск, Александра Лами, Кристиана Милле, Роуз де Кервеноаэль, Матильда Рёрих, Нильс Отенен-Жерар, Виктор Артус Соларо, Жакки Берруайе, Кристоф Канар, Михаэль Вандер-Мерен
О фильме:
Муж не понимает жену? Конфликт с детьми? Хочется, чтобы тебя услышали и встали на твое место? Бойтесь своих желаний. В этой семейке все поменялись местами, включая бабушку.

Качество: BDRip-AVC
Видео: AVC, 1024x552 (1,85:1), 24 fps, 2630 Kbit/s (0.194 bit/pixel)
Аудио: русский, AC3, 5.1, 48 kHz, 384 kbps CBR
Продолжительность: 01:31:40
Перевод: Дублированный | iTunes
Субтитры: Отсутствуют

Скриншоты

MediaInfo

Общее
Уникальный идентификатор : 187086099174665359962292882979293149734 (0x8CBF78D8C9802D82BCA50D6A76AEBA26)
Полное имя : G:\GF\Le.sens.de.la.famille.2020.BDRip.AVC.Rip.by.HardwareMining.R.G.Generalfilm.mkv
Формат : Matroska
Версия формата : Version 4
Размер файла : 1,93 Гбайт
Продолжительность : 1 ч. 31 м.
Общий поток : 3 012 Кбит/сек
Название фильма : Le.sens.de.la.famille.2020.BDRip.AVC.Rip.by.HardwareMining.R.G.Generalfilm
Дата кодирования : UTC 2022-05-13 15:50:02
Программа кодирования : mkvmerge v6.8.0 ('Theme for Great Cities') 64bit built on Mar 2 2014 21:34:26
Библиотека кодирования : libebml v1.3.0 + libmatroska v1.4.1
Обложка : Yes
Attachments : cover2.png
Видео
Идентификатор : 1
Формат : AVC
Формат/Информация : Advanced Video Codec
Профиль формата : High@L4.1
Настройки формата : CABAC / 9 Ref Frames
Параметр CABAC формата : Да
Параметр RefFrames формата : 9 кадров
Идентификатор кодека : V_MPEG4/ISO/AVC
Продолжительность : 1 ч. 31 м.
Битрейт : 2 630 Кбит/сек
Ширина : 1 024 пикселя
Высота : 552 пикселя
Соотношение сторон : 1,85:1
Режим частоты кадров : Постоянный
Частота кадров : 24,000 кадра/сек
Цветовое пространство : YUV
Субдискретизация насыщенности : 4:2:0
Битовая глубина : 8 бит
Тип развёртки : Прогрессивная
Бит/(Пиксели*Кадры) : 0.194
Размер потока : 1,64 Гбайт (85%)
Библиотека кодирования : x264 core 148 r2638 7599210
Настройки программы : cabac=1 / ref=9 / deblock=1:-2:-1 / analyse=0x3:0x113 / me=umh / subme=10 / psy=1 / psy_rd=0.00:0.15 / mixed_ref=1 / me_range=32 / chroma_me=1 / trellis=2 / 8x8dct=1 / cqm=0 / deadzone=21,11 / fast_pskip=0 / chroma_qp_offset=-3 / threads=6 / lookahead_threads=1 / sliced_threads=0 / nr=0 / decimate=0 / interlaced=0 / bluray_compat=0 / constrained_intra=0 / bframes=10 / b_pyramid=2 / b_adapt=2 / b_bias=0 / direct=1 / weightb=1 / open_gop=0 / weightp=2 / keyint=240 / keyint_min=24 / scenecut=40 / intra_refresh=0 / rc_lookahead=40 / rc=2pass / mbtree=0 / bitrate=2630 / ratetol=1.0 / qcomp=0.65 / qpmin=0 / qpmax=69 / qpstep=4 / cplxblur=20.0 / qblur=0.5 / vbv_maxrate=50000 / vbv_bufsize=65500 / nal_hrd=none / filler=0 / ip_ratio=1.40 / pb_ratio=1.30 / aq=1:2.00
Язык : English
Default : Да
Forced : Нет
Аудио
Идентификатор : 2
Формат : AC-3
Формат/Информация : Audio Coding 3
Коммерческое название : Dolby Digital
Идентификатор кодека : A_AC3
Продолжительность : 1 ч. 31 м.
Вид битрейта : Постоянный
Битрейт : 384 Кбит/сек
Каналы : 6 каналов
Channel layout : L R C LFE Ls Rs
Частота : 48,0 КГц
Частота кадров : 31,250 кадров/сек (1536 SPF)
Метод сжатия : С потерями
Размер потока : 252 Мбайт (13%)
Заголовок : iTunes
Язык : Russian
Service kind : Complete Main
Default : Да
Forced : Да
Меню
00:00:00.000 : en:Глава 01
00:07:01.833 : en:Глава 02
00:14:59.625 : en:Глава 03
00:21:13.625 : en:Глава 04
00:30:30.875 : en:Глава 05
00:36:13.417 : en:Глава 06
00:42:09.667 : en:Глава 07
00:48:58.292 : en:Глава 08
00:58:25.000 : en:Глава 09
01:07:12.083 : en:Глава 10
01:12:06.667 : en:Глава 11
01:21:38.958 : en:Глава 1
Релиз от:
[Profile] [PM]
Display posts:    
Reply to topic

Current time is: 17-May 14:23

All times are UTC + 3



You cannot post new topics in this forum
You cannot reply to topics in this forum
You cannot edit your posts in this forum
You cannot delete your posts in this forum
You cannot vote in polls in this forum
You cannot attach files in this forum
You cannot download files in this forum