Диверсант. Идеальный штурм [4 сезон: 1-4 серии из 4] (2022) WEBRip от Generalfilm | КПК

Reply to topic
 
Author Message

mjjhec ®

Gender: Male

Longevity: 3 years 6 months

Posts: 1258

Location: СССР

Post 14-May-2022 09:48

[Quote]

Диверсант. Идеальный штурм Год выпуска: 2022
Жанр: Военный, боевик, приключения
Выпущено: Россия, Кинокомпания «Дивера Фильм», «Гуд Лак Продакшн»
Режиссер: Тимур Алпатов
В ролях: Алексей Бардуков, Кирилл Плетнёв, Филипп Рейнхардт, Кирилл Полухин, Светлана Смирнова-Кацагаджиева, Антон Батырев, Юрий Дейнекин, Дмитрий Смирнов, Артур Фетисов, Артём Кретов.
О фильме: Весна 1945 года. Вооружённые силы нацистской Германии готовятся к отражению натиска советских войск в Восточной Пруссии, который может стать для немцев роковым. Линия фронта неумолимо приближается к Кёнигсбергу. Немецкое командование отдает распоряжение подразделениям вермахта и фольксштурма превратить город в неприступную крепость, подготовив его к длительной обороне. Теперь Кёнигсберг не взять извне! За несколько недель до наступления красноармейцев Алексей Бобриков и Леонид Филатов получают приказ проникнуть в неприступный город с целью выполнения диверсионных задач, важнейшей из которых является поиск слабого места в фортификационных сооружениях Кёнигсберга для максимально бескровного штурма. Леонид и Алексей попадают в осажденный город и приступают к проведению, наверно, самой хитроумной и смертельно опасной разведоперации в своей жизни. А помогать им в организации «идеального штурма» будет неожиданный союзник…
Качество: WEBRip | КПК
Видео: H.264, 640x360 (16:9), 25 fps, 400 kb/s
Аудио: AAC, 48 kHz, 2 ch, 128 kb/s
Продолжительность: 2 х ~01:44:00
Перевод: Не требуется

Скриншоты


MediaInfo

Complete name : F:\Rip\Diversant.S04.by.mjjhec\Diversant.S04E01-02.WEBRip.mp4
Format : MPEG-4
Format profile : Base Media
Codec ID : isom (isom/avc1)
File size : 397 MiB
Duration : 1 h 44 min
Overall bit rate mode : Variable
Overall bit rate : 532 kb/s
Encoded date : UTC 2022-05-13 11:30:10
Tagged date : UTC 2022-05-13 11:30:10
Video
ID : 1
Format : AVC
Format/Info : Advanced Video Codec
Format profile : High@L4.1
Format settings : CABAC / 9 Ref Frames
Format settings, CABAC : Yes
Format settings, Reference : 9 frames
Codec ID : avc1
Codec ID/Info : Advanced Video Coding
Duration : 1 h 44 min
Bit rate : 400 kb/s
Maximum bit rate : 2 444 kb/s
Width : 640 pixels
Height : 360 pixels
Display aspect ratio : 16:9
Frame rate mode : Constant
Frame rate : 25.000 FPS
Color space : YUV
Chroma subsampling : 4:2:0
Bit depth : 8 bits
Scan type : Progressive
Bits/(Pixel*Frame) : 0.069
Stream size : 299 MiB (75%)
Writing library : x264 core 125 r2208 d9d2288
Encoding settings : cabac=1 / ref=9 / deblock=1:-3:-3 / analyse=0x3:0x133 / me=umh / subme=11 / psy=1 / psy_rd=1.00:0.00 / mixed_ref=1 / me_range=32 / chroma_me=1 / trellis=2 / 8x8dct=1 / cqm=0 / deadzone=21,11 / fast_pskip=1 / chroma_qp_offset=-4 / threads=6 / lookahead_threads=1 / sliced_threads=0 / nr=0 / decimate=1 / interlaced=0 / bluray_compat=0 / constrained_intra=0 / bframes=9 / b_pyramid=2 / b_adapt=2 / b_bias=0 / direct=3 / weightb=1 / open_gop=0 / weightp=2 / keyint=240 / keyint_min=24 / scenecut=40 / intra_refresh=0 / rc_lookahead=40 / rc=2pass / mbtree=1 / bitrate=400 / ratetol=1.0 / qcomp=0.60 / qpmin=0 / qpmax=69 / qpstep=4 / cplxblur=20.0 / qblur=0.5 / vbv_maxrate=14000 / vbv_bufsize=14000 / nal_hrd=none / ip_ratio=1.40 / aq=1:1.00
Encoded date : UTC 2022-05-13 11:30:10
Tagged date : UTC 2022-05-13 11:30:19
Codec configuration box : avcC
Audio
ID : 2
Format : AAC LC
Format/Info : Advanced Audio Codec Low Complexity
Codec ID : mp4a-40-2
Duration : 1 h 44 min
Bit rate mode : Variable
Bit rate : 128 kb/s
Maximum bit rate : 132 kb/s
Channel(s) : 2 channels
Channel layout : L R
Sampling rate : 48.0 kHz
Frame rate : 46.875 FPS (1024 SPF)
Compression mode : Lossy
Stream size : 95.6 MiB (24%)
Encoded date : UTC 2022-05-13 11:30:17
Tagged date : UTC 2022-05-13 11:30:19
Релиз от:
[Profile] [PM]

KRIEVS2011

Gender: Male

Longevity: 3 years 3 months

Posts: 368

Location: « Латвия - Latvija » « Рига - Riga »

Post Yesterday 16:29 (after 2 days 6 hours)

[Quote]

Отличный Фильм
Уважаю Историю - С.С.С.Р. -
Раздающему...
Огромное Спасибо !!!
[Profile] [PM]

mjjhec ®

Gender: Male

Longevity: 3 years 6 months

Posts: 1258

Location: СССР

Post Yesterday 22:26 (after 5 hours)

[Quote]

Пожалуйста.
[Profile] [PM]
Display posts:    
Reply to topic

Current time is: 17-May 15:06

All times are UTC + 3



You cannot post new topics in this forum
You cannot reply to topics in this forum
You cannot edit your posts in this forum
You cannot delete your posts in this forum
You cannot vote in polls in this forum
You cannot attach files in this forum
You cannot download files in this forum